Login / Register

The.Legend.of.Korra.S03E05.PROPER.HDTV.x264-QCF[rartv]

Category: Video
Type: TV
Movie Title: The Legend of Korra
Season: 3
Episode: 5
Episode Title: The Metal Clan
Release date: 2014-07-10
Cast: Mindy Sterling,Steve Blum,Richard Epcar,Dee Bradley Baker,Eva Marie Saint,Logan Wells,Jeff Bennett,Tom Kenny,Carlos Alazraqui,Steve Blum,Steve Blum,Steve Blum,Maria Bamford,Stephen Root,David Faustino,George Coe,P.J. Byrne,J.K. Simmons,Dante Basco
Genre: Animation, Action, Adventure
External Links: IMDB
Directors: Colin Heck,Ian Graham,Ki Hyun Ryu,Joaquim Dos Santos,Melchior Zwyer
Producers: Michael Dante DiMartino,Bryan Konietzko,Ki Hyun Ryu,Joaquim Dos Santos,Tim Yoon
Writers: Michael Dante DiMartino,Bryan Konietzko,Tim Hedrick,Joshua Hamilton,Katie Mattila
Duration: 24
Original run: 2012-04-13
IMDB rating: 8.7 (46,323 votes)
Summary: Avatar Korra fights to keep Republic City safe from the evil forces of both the physical and spiritual worlds.
Votes
Good: 0
Bad: 0
GoodBad
0
Seeders
1
Leechers

Added: 2014-07-13

Size: 110.91 MB

Health: 25%

Hash (Base16): C57FDE24F56A09C64BD3EA97E03CF2A8D9DB6033

Hash (Base32): YV754JHVNIE4MS6T5KL6APHSVDM5WYBT

DownloadBookmark
^

The.Legend.of.Korra.S03E05.PROPER.HDTV.x264-QCF[rartv]

image
[mediainfo]

Video
ID : 1
Format : AVC
Format/Info : Advanced Video Codec
Format profile : High@L3.1
Format settings, CABAC : Yes
Format settings, ReFrames : 10 frames
Codec ID : avc1
Codec ID/Info : Advanced Video Coding
Duration : 22mn 10s
Bit rate : 536 Kbps
Maximum bit rate : 4 741 Kbps
Width : 720 pixels
Height : 404 pixels
Display aspect ratio : 16:9
Frame rate mode : Constant
Frame rate : 23.976 fps
Color space : YUV
Chroma subsampling : 4:2:0
Bit depth : 8 bits
Scan type : Progressive
Bits/(Pixel*Frame) : 0.077
Stream size : 85.0 MiB (81%)
Writing library : x264 core 142 r2431 ac76440
Encoding settings : cabac=1 / ref=10 / deblock=1:1:1 / analyse=0x3:0x113 / me=umh / subme=8 / psy=1 / psy_rd=0.40:0.00 / mixed_ref=1 / me_range=16 / chroma_me=1 / trellis=1 / 8x8dct=1 / cqm=0 / deadzone=21,11 / fast_pskip=1 / chroma_qp_offset=-2 / threads=6 / lookahead_threads=1 / sliced_threads=0 / nr=0 / decimate=1 / interlaced=0 / bluray_compat=0 / constrained_intra=0 / bframes=5 / b_pyramid=2 / b_adapt=2 / b_bias=0 / direct=3 / weightb=1 / open_gop=0 / weightp=2 / keyint=240 / keyint_min=23 / scenecut=40 / intra_refresh=0 / rc_lookahead=50 / rc=crf / mbtree=1 / crf=19.0 / qcomp=0.60 / qpmin=0 / qpmax=69 / qpstep=4 / vbv_maxrate=17500 / vbv_bufsize=17500 / crf_max=0.0 / nal_hrd=none / filler=0 / ip_ratio=1.40 / aq=1:0.60
Encoded date : UTC 2014-07-13 00:00:17
Tagged date : UTC 2014-07-13 00:09:36
Matrix coefficients : BT.709

Audio
ID : 2
Format : AAC
Format/Info : Advanced Audio Codec
Format profile : LC
Codec ID : 40
Duration : 22mn 10s
Bit rate mode : Variable
Bit rate : 120 Kbps
Maximum bit rate : 147 Kbps
Channel(s) : 2 channels
Channel positions : Front: L R
Sampling rate : 48.0 KHz
Compression mode : Lossy
Stream size : 19.1 MiB (18%)
Language : English
Encoded date : UTC 2014-07-13 00:09:30
Tagged date : UTC 2014-07-13 00:09:36

[/mediainfo]

TRACKERSEEDLEECHDOWNLOADED
udp://tracker.coppersurfer.tk:6969/announce
udp://9.rarbg.me:2710/announce
udp://11.rarbg.me:80/announce
udp://10.rarbg.me:80/announce
udp://12.rarbg.me:80/announce
udp://9.rarbg.com:2710/announce
udp://open.demonii.com:1337/announce
udp://tracker.publicbt.com:80/announce
udp://tracker.istole.it:80/announce
udp://tracker.openbittorrent.com:80/announce
udp://tracker.istole.it:6969/announce
http://tracker.istole.it/announce
http://tracker.trackerfix.com/announce
udp://tracker.ccc.de:80/announce
http://tracker.thepiratebay.org/announce
udp://tracker-ccc.de:6969/announce
FILESIZE
RARBG.com.txt31 B
Sample/sample-the.legend.of.korra.s03e05.proper.hdtv.x264-qcf.mp46.21 MB
the.legend.of.korra.s03e05.proper.hdtv.x264-qcf.mp4104.7 MB
the.legend.of.korra.s03e05.proper.hdtv.x264-qcf.nfo3.29 KB

Related results

Date Title Size Files Seeds Leechs Category Health
Video(TV) 109.48 MB 3 2014-07-12 0 1 25%
Video(TV) 330.16 MB 3 2014-07-12 1 0 25%
Video(TV) 323.79 MB 3 2014-07-12 1 1 25%
Video(TV) 272.5 MB 3 2014-09-25 1 0 25%
Video(TV) 321.46 MB 3 2014-10-24 0 1 25%

Login

Account deleting

Are you sure you want to delete your account?

WARNING: This action cannot be undone!!!