Login / Register

Met-Art.14.07.15.Emily.Bloom.Oshte.XXX.1080p.MP4-YAPG

Category: XXX
Type: Other
Votes
Good: 0
Bad: 0
GoodBad
0
Seeders
1
Leechers

Added: 2014-07-15

Size: 387.21 MB

Health: 25%

Hash (Base16): 9F7708A7C5AE5491A9C5CEA871A404B5CEE45955

Hash (Base32): T53QRJ6FVZKJDKOFZ2UHDJAEWXHOIWKV

DownloadBookmark
^

Screenshots:


             . .. YES !!! ANOTHER P0RN GROUP - PROUDLY PRESENTS .. .

          Release Name ...... :  Met-Art.14.07.15.Emily.Bloom.Oshte.XXX.1080p.MP4-YAPG
          URL ............... :  Met-Art.com

          Media ............. :  MP4 - Video (XXX-PAYSITE)

          Resolution ........ :  1920x1080 - 1080p

          Release Date ...... :  14.07.15

          Genre ............. :

          Length ............ :   10min. 33sec.

          Size .............. :  28 x 15MB 387.2 MB

             .  .. R E L E A S E . I N F O R M A T I O N ..  .

   Release notes :

   New Porn for you.

   Enjoy it

     logo and info layout: YAPG     /     info last updated on : 10.10.17

[mediainfo]
Video
ID                                       : 1
Format                                   : AVC
Format/Info                              : Advanced Video Codec
Format profile                           : High@L4.0
Format settings, CABAC                   : Yes
Format settings, ReFrames                : 5 frames
Codec ID                                 : avc1
Codec ID/Info                            : Advanced Video Coding
Duration                                 : 10mn 33s
Bit rate                                 : 5 000 Kbps
Width                                    : 1 920 pixels
Height                                   : 1 080 pixels
Display aspect ratio                     : 16:9
Frame rate mode                          : Constant
Frame rate                               : 29.970 fps
Color space                              : YUV
Chroma subsampling                       : 4:2:0
Bit depth                                : 8 bits
Scan type                                : Progressive
Bits/(Pixel*Frame)                       : 0.080
Stream size                              : 377 MiB (97%)
Writing library                          : x264 core 129 r2245 bc13772
Encoding settings                        : cabac=1 / ref=5 / deblock=1:0:0 / analyse=0x3:0x113 / me=umh / subme=8 / psy=0 / mixed_ref=1 / me_range=16 / chroma_me=1 / trellis=1 / 8x8dct=1 / cqm=0 / deadzone=21,11 / fast_pskip=1 / chroma_qp_offset=0 / threads=36 / lookahead_threads=6 / sliced_threads=0 / nr=0 / decimate=1 / interlaced=0 / bluray_compat=0 / constrained_intra=0 / bframes=3 / b_pyramid=2 / b_adapt=2 / b_bias=0 / direct=3 / weightb=1 / open_gop=0 / weightp=2 / keyint=250 / keyint_min=25 / scenecut=40 / intra_refresh=0 / rc=2pass / mbtree=0 / bitrate=5000 / ratetol=1.0 / qcomp=0.60 / qpmin=10 / qpmax=51 / qpstep=4 / cplxblur=20.0 / qblur=0.5 / ip_ratio=1.40 / pb_ratio=1.30 / aq=1:1.00
Language                                 : English
Encoded date                             : UTC 2014-07-09 15:05:07
Tagged date                              : UTC 2014-07-09 15:05:07

Audio
ID                                       : 2
Format                                   : AAC
Format/Info                              : Advanced Audio Codec
Format profile                           : LC
Codec ID                                 : 40
Duration                                 : 10mn 33s
Bit rate mode                            : Variable
Bit rate                                 : 126 Kbps
Maximum bit rate                         : 128 Kbps
Channel(s)                               : 2 channels
Channel positions                        : Front: L R
Sampling rate                            : 44.1 KHz
Compression mode                         : Lossy
Stream size                              : 9.51 MiB (2%)
Language                                 : English
Encoded date                             : UTC 2014-07-09 15:05:07
Tagged date                              : UTC 2014-07-09 15:05:07


[/mediainfo]

TRACKERSEEDLEECHDOWNLOADED
udp://9.rarbg.me:2710/announce
udp://11.rarbg.me:80/announce
udp://10.rarbg.me:80/announce
udp://12.rarbg.me:80/announce
udp://9.rarbg.com:2710/announce
udp://open.demonii.com:1337/announce
udp://tracker.publicbt.com:80/announce
udp://tracker.istole.it:80/announce
udp://tracker.openbittorrent.com:80/announce
udp://tracker.istole.it:6969/announce
http://tracker.trackerfix.com/announce
udp://tracker.ccc.de:80/announce
http://tracker.thepiratebay.org/announce
udp://tracker-ccc.de:6969/announce
FILESIZE
RARBG.com.txt31 B
ma475eboosht.mp4387.2 MB
yp-ma140715ebo.nfo8.38 KB

Login

Account deleting

Are you sure you want to delete your account?

WARNING: This action cannot be undone!!!