Login / Register
Cam

Edge.of.Tomorrow.2014.FIRST.CAM.XviD.MP3-RARBG

Category: Video
Type: Movies
Language: English
Movie Title: Edge of Tomorrow
Detected quality: Cam
Release date: 2014-06-05
Cast: Tom Cruise,Emily Blunt,Brendan Gleeson,Bill Paxton,Jonas Armstrong,Tony Way,Kick Gurry,Franz Drameh,Laurent Plancel,Charlotte Riley,Noah Taylor,Natasha Goulden,Jeremy Piven,Marianne Jean-Baptiste,Lara Pulver,David Kaye,Terence Maynard,Philip Harvey
Genre: Action, Adventure, Sci-Fi
External Links: IMDB
Director: Doug Liman
Producers: Bruce Berman,Jeffrey Silver,Tim Lewis,Kim H. Winther,Tom Lassally,Gregory Jacobs,Erwin Stoff,Doug Liman,Greg Silverman,Joby Harold,Jon Berg,Jason Hoffs,David Bartis,Hidemi Fukuhara
Writers: Christopher McQuarrie,Jez Butterworth,John-Henry Butterworth,Hiroshi Sakurazaka
Duration: 113
IMDB rating: 8.0 (267,298 votes)
Summary: A military officer is brought into an alien war against an extraterrestrial enemy who can reset the day and know the future. When this officer is enabled with the same power, he teams up with a Special Forces warrior to try and end the war.
Votes
Good: 0
Bad: 0
GoodBad
0
Seeders
1
Leechers

Added: 2014-06-05

Size: 1.62 GB

Health: 25%

Hash (Base16): 17E9D2520BCA85D57A8EF7394605510A9815BF58

Hash (Base32): C7U5EUQLZKC5K6UO644UMBKRBKMBLP2Y

DownloadBookmark
^

Edge.of.Tomorrow.2014.FIRST.CAM.XviD.MP3-RARBG

image

Title: Edge of Tomorrow (2014)
IMDB Rating: 8.1/10
Genres: Action
Actors: Tom Cruise , Emily Blunt , Brendan Gleeson , Bill Paxton , Jonas Armstrong , Tony Way , Kick Gurry , Franz Drameh , Dragomir Mrsic , Charlotte Riley , Masayoshi Haneda , Terence Maynard , Noah Taylor , Lara Pulver , Madeleine Mantock
Runtime: 113
Year: 2014
Plot:
An alien race has hit the Earth in an unrelenting assault| unbeatable by any military unit in the world. Major William Cage (Cruise) is an officer who has never seen
a day of combat when he is unceremoniously dropped into what amounts to a suicide mission. Killed within minutes| Cage now finds himself inexplicably thrown into a
time loop-forcing him to live out the same brutal combat over and over| fighting and dying again...and again. But with each battle| Cage becomes able to engage the
adversaries with increasing skill| alongside Special Forces warrior Rita Vrataski (Blunt). And| as Cage and Vrataski take the fight to the aliens| each repeated
encounter gets them one step closer to defeating the enemy.

Edge.of.Tomorrow.2014.FIRST.CAM.XviD.MP3-RARBG

http://www.imdb.com/title/tt1631867/

Screens:
image
image
image
image
image
image

Info:
Format : AVI
Format/Info : Audio Video Interleave
File size : 1.62 GiB
Duration : 1h 45mn
Overall bit rate : 2 202 Kbps
Movie name : RARBG.COM - Edge.of.Tomorrow.2014.FIRST.CAM.XviD.MP3-RARBG
Writing library : VirtualDub build 35491/release
Comment : RARBG.COM - Edge.of.Tomorrow.2014.FIRST.CAM.XviD.MP3-RARBG

Video
ID : 0
Format : MPEG-4 Visual
Format profile : [email protected]
Format settings, BVOP : No
Format settings, QPel : No
Format settings, GMC : No warppoints
Format settings, Matrix : Default (H.263)
Codec ID : XVID
Codec ID/Hint : XviD
Duration : 1h 45mn
Bit rate : 2 000 Kbps
Width : 848 pixels
Height : 352 pixels
Display aspect ratio : 2.40:1
Frame rate : 25.000 fps
Color space : YUV
Chroma subsampling : 4:2:0
Bit depth : 8 bits
Scan type : Progressive
Compression mode : Lossy
Bits/(Pixel*Frame) : 0.268
Stream size : 1.48 GiB (91%)
Writing library : Lavc55.61.100

Audio
ID : 1
Format : MPEG Audio
Format version : Version 1
Format profile : Layer 3
Mode : Joint stereo
Mode extension : MS Stereo
Codec ID : 55
Codec ID/Hint : MP3
Duration : 1h 45mn
Bit rate mode : Constant
Bit rate : 192 Kbps
Channel(s) : 2 channels
Sampling rate : 48.0 KHz
Compression mode : Lossy
Stream size : 145 MiB (9%)
Alignment : Split accross interleaves
Interleave, duration : 40 ms (1.00 video frame)
Interleave, preload duration : 500 ms
Writing library : LAME3.99r
Encoding settings : -m j -V 4 -q 3 -lowpass 18.6 -b 192




Notes:
Greetz to everyone :)

TRACKERSEEDLEECHDOWNLOADED
udp://tracker.coppersurfer.tk:6969/announce00648
http://mgtracker.org:2710/announce008
udp://9.rarbg.me:2710/announce
udp://11.rarbg.me:80/announce
udp://10.rarbg.me:80/announce
udp://12.rarbg.me:80/announce
udp://9.rarbg.com:2710/announce
udp://open.demonii.com:1337/announce
udp://tracker.publicbt.com:80/announce
udp://tracker.istole.it:80/announce
udp://tracker.openbittorrent.com:80/announce
udp://tracker.istole.it:6969/announce
http://tracker.istole.it/announce
http://tracker.torrenty.org:6969/announce
http://tracker.leechers-paradise.org:6969/announce
http://bt.careland.com.cn:6969/announce
http://bttracker.crunchbanglinux.org:6969/announce
http://tracker.best-torrents.net:6969/announce
http://tracker.trackerfix.com/announce
http://exodus.desync.com:6969/announce
http://tracker.publicbt.com/announce
udp://tracker.ccc.de:80/announce
udp://tracker.torrenty.org:6969/announce
http://tracker.thepiratebay.org/announce
http://shadowshq.eddie4.nl:6969/announce
http://shadowshq.yi.org:6969/announce
http://www.eddie4.nl:6969/announce
http://tracker.glotorrents.com:6969/announce
http://eddie4.nl:6969/announce
http://sugoi.pomf.se/announce
http://sugoi.pomf.se:2710/announce
http://bt2.careland.com.cn:6969/announce
http://bt3.careland.com.cn:6969/announce
http://tracker2.wasabii.com.tw:6969/announce
http://glotorrents.com:6969/announce
http://castradio.net:6969/announce
http://explodie.org:6969/announce
http://95.85.40.114/announce
http://bt.artvid.ru:6969/announce
http://121.14.98.151:9090/announce
udp://tracker-ccc.de:6969/announce
http://tracker.pomf.se:80/announce
FILESIZE
Edge.of.Tomorrow.2014.FIRST.CAM.XviD.MP3-RARBG.avi1.62 GB
RARBG.com.avi1.14 MB
Edge.of.Tomorrow.2014.FIRST.CAM.XviD.MP3-RARBG.nfo3.23 KB
RARBG.com.txt31 B

Login

Account deleting

Are you sure you want to delete your account?

WARNING: This action cannot be undone!!!