Login / Register
TeleSync

Edge of Tomorrow 2014 TS x264 AC3 TiTAN

Category: Video
Type: Movies
Language: English
Movie Title: Edge of Tomorrow
Detected quality: TeleSync
Release date: 2014-06-05
Cast: Tom Cruise,Emily Blunt,Brendan Gleeson,Bill Paxton,Jonas Armstrong,Tony Way,Kick Gurry,Franz Drameh,Laurent Plancel,Charlotte Riley,Noah Taylor,Natasha Goulden,Jeremy Piven,Marianne Jean-Baptiste,Lara Pulver,David Kaye,Terence Maynard,Philip Harvey
Genre: Action, Adventure, Sci-Fi
External Links: IMDB
Director: Doug Liman
Producers: Bruce Berman,Jeffrey Silver,Tim Lewis,Kim H. Winther,Tom Lassally,Gregory Jacobs,Erwin Stoff,Doug Liman,Greg Silverman,Joby Harold,Jon Berg,Jason Hoffs,David Bartis,Hidemi Fukuhara
Writers: Christopher McQuarrie,Jez Butterworth,John-Henry Butterworth,Hiroshi Sakurazaka
Duration: 113
IMDB rating: 8.0 (267,298 votes)
Summary: A military officer is brought into an alien war against an extraterrestrial enemy who can reset the day and know the future. When this officer is enabled with the same power, he teams up with a Special Forces warrior to try and end the war.
Votes
Good: 0
Bad: 0
GoodBad
1
Seeders
0
Leechers

Added: 2014-06-10

Size: 1.07 GB

Health: 25%

Hash (Base16): 2355B53454D006822B6A5371172C425701F02EF3

Hash (Base32): ENK3KNCU2ADIEK3KKNYROLCCK4A7ALXT

DownloadBookmark
^
image



http://www.imdb.com/title/tt1631867/


An alien race has hit the Earth in an unrelenting assault, unbeatable by any military unit in the world. Major William Cage (Cruise) is an officer who has never seen a day of combat when he is unceremoniously dropped into what amounts to a suicide mission. Killed within minutes, Cage now finds himself inexplicably thrown into a time loop-forcing him to live out the same brutal combat over and over, fighting and dying again...and again. But with each battle, Cage becomes able to engage the adversaries with increasing skill, alongside Special Forces warrior Rita Vrataski (Blunt). And, as Cage and Vrataski take the fight to the aliens, each repeated encounter gets them one step closer to defeating the enemy.

Director: Doug Liman
Writers: Christopher McQuarrie (screenplay), Jez Butterworth (screenplay)
Stars: Tom Cruise, Emily Blunt, Bill Paxton
Genres: Action | Sci-Fi
Country: USA | Australia
Language: English



Source: 720p Italian/MiLLENiUM THX

OK took Italian source ran some filters.. threw on MiLLENiUM line.. came out pretty nice.. Enjoy

General

Format : Matroska
Format version : Version 2
File size : 1.07 GiB
Duration : 1h 45mn
Overall bit rate mode : Variable
Overall bit rate : 1 453 Kbps
Encoded date : UTC 2014-06-10 15:03:08
Writing application : mkvmerge v6.9.1 ('Blue Panther') 32bit built on Apr 18 2014 18:15:44
Writing library : libebml v1.3.0 + libmatroska v1.4.1

Video
ID : 1
Format : AVC
Format/Info : Advanced Video Codec
Format profile : High@L4.1
Format settings, CABAC : Yes
Format settings, ReFrames : 3 frames
Codec ID : V_MPEG4/ISO/AVC
Duration : 1h 45mn
Bit rate mode : Variable
Bit rate : 1 232 Kbps
Maximum bit rate : 40.0 Mbps
Width : 720 pixels
Height : 296 pixels
Display aspect ratio : 2.40:1
Frame rate mode : Constant
Frame rate : 25.000 fps
Color space : YUV
Chroma subsampling : 4:2:0
Bit depth : 8 bits
Scan type : Progressive
Bits/(Pixel*Frame) : 0.231
Stream size : 931 MiB (85%)
Writing library : x264 core 142 r2431 ac76440
Default : Yes
Forced : No
Color primaries : BT.709
Transfer characteristics : BT.709
Matrix coefficients : BT.709

Audio
ID : 2
Format : AC-3
Format/Info : Audio Coding 3
Mode extension : CM (complete main)
Format settings, Endianness : Big
Codec ID : A_AC3
Duration : 1h 45mn
Bit rate mode : Constant
Bit rate : 192 Kbps
Channel(s) : 2 channels
Channel positions : Front: L R
Sampling rate : 44.1 KHz
Bit depth : 16 bits
Compression mode : Lossy
Stream size : 145 MiB (13%)
Default : Yes
Forced : No



image
image
image
image
image
image

TRACKERSEEDLEECHDOWNLOADED
udp://tracker.coppersurfer.tk:6969/announce100
http://mgtracker.org:2710/announce100
udp://9.rarbg.me:2710/announce
udp://11.rarbg.me:80/announce
udp://10.rarbg.me:80/announce
udp://12.rarbg.me:80/announce
udp://9.rarbg.com:2710/announce
udp://open.demonii.com:1337/announce
udp://tracker.publicbt.com:80/announce
udp://tracker.istole.it:80/announce
udp://tracker.openbittorrent.com:80/announce
udp://tracker.istole.it:6969/announce
http://tracker.istole.it/announce
http://tracker.torrenty.org:6969/announce
http://bt.careland.com.cn:6969/announce
http://tracker.tfile.me/announce
http://tracker.trackerfix.com/announce
udp://exodus.desync.com:6969/announce
http://exodus.desync.com:6969/announce
udp://tracker.publicbt.com/announce
udp://tracker.ccc.de:80/announce
udp://11.rarbg.com/announce
udp://10.rarbg.com/announce
udp://tracker.torrenty.org:6969/announce
udp://inferno.demonoid.ph:3389/announce
udp://pow7.com:80/announce
http://tracker.ex.ua/announce
udp://tracker.1337x.org:80/announce
http://tracker.thepiratebay.org/announce
http://bt2.careland.com.cn:6969/announce
http://i.bandito.org/announce
http://explodie.org:6969/announce
http://94.228.192.98/announce
udp://tracker.token.ro:80/announce
udp://tracker.prq.to/announce
http://tracker.ex.ua:80/announce
udp://tracker-ccc.de:6969/announce
http://www.les-renseignements-genereux.org:80/announce
FILESIZE
Edge of Tomorrow 2014 TS x264 AC3 TiTAN.mkv1.07 GB
Edge of Tomorrow 2014 TS x264 AC3 TiTAN.nfo3.4 KB
Torrent Downloaded From ExtraTorrent.cc.txt338 B

Related results

Date Title Size Files Seeds Leechs Category Health
Video(Movies) 1.88 GB 3 2014-06-05 0 1 25%
Video(Movies) 1.88 GB 3 2014-06-05 0 1 25%
Video(Movies) 1.88 GB 2 2014-06-05 0 1 25%
Video(Movies) 1.07 GB 5 2014-06-09 0 1 25%
Video(Movies) 1.07 GB 4 2014-06-09 0 1 25%

Login

Account deleting

Are you sure you want to delete your account?

WARNING: This action cannot be undone!!!