Login / Register
TeleSync

Edge.of.Tomorrow.2014.TS.v2.XviD.AC3.2.0-RARBG

Category: Video
Type: Movies
Language: English
Movie Title: Edge of Tomorrow
Detected quality: TeleSync
Release date: 2014-06-05
Cast: Tom Cruise,Emily Blunt,Brendan Gleeson,Bill Paxton,Jonas Armstrong,Tony Way,Kick Gurry,Franz Drameh,Laurent Plancel,Charlotte Riley,Noah Taylor,Natasha Goulden,Jeremy Piven,Marianne Jean-Baptiste,Lara Pulver,David Kaye,Terence Maynard,Philip Harvey
Genre: Action, Adventure, Sci-Fi
External Links: IMDB
Director: Doug Liman
Producers: Bruce Berman,Jeffrey Silver,Tim Lewis,Kim H. Winther,Tom Lassally,Gregory Jacobs,Erwin Stoff,Doug Liman,Greg Silverman,Joby Harold,Jon Berg,Jason Hoffs,David Bartis,Hidemi Fukuhara
Writers: Christopher McQuarrie,Jez Butterworth,John-Henry Butterworth,Hiroshi Sakurazaka
Duration: 113
IMDB rating: 8.0 (267,298 votes)
Summary: A military officer is brought into an alien war against an extraterrestrial enemy who can reset the day and know the future. When this officer is enabled with the same power, he teams up with a Special Forces warrior to try and end the war.
Votes
Good: 0
Bad: 0
GoodBad
0
Seeders
1
Leechers

Added: 2014-06-12

Size: 3.15 GB

Health: 25%

Hash (Base16): 61D83155D2E7F96FB41EF729F516BECEBAA1A802

Hash (Base32): MHMDCVOS474W7NA664U7KFV6Z25KDKAC

DownloadBookmark
^

Edge.of.Tomorrow.2014.TS.v2.XviD.AC3.2.0-RARBG

image

Title: Edge of Tomorrow (2014)
IMDB Rating: 8.1/10
Genres: Action
Actors: Tom Cruise , Emily Blunt , Brendan Gleeson , Bill Paxton , Jonas Armstrong , Tony Way , Kick Gurry , Franz Drameh , Dragomir Mrsic , Charlotte Riley , Masayoshi Haneda , Terence Maynard , Noah Taylor , Lara Pulver , Madeleine Mantock
Runtime: 113
Year: 2014
Plot:
An alien race has hit the Earth in an unrelenting assault| unbeatable by any military unit in the world. Major William Cage (Cruise) is an officer who has never seen
a day of combat when he is unceremoniously dropped into what amounts to a suicide mission. Killed within minutes| Cage now finds himself inexplicably thrown into a
time loop-forcing him to live out the same brutal combat over and over| fighting and dying again...and again. But with each battle| Cage becomes able to engage the
adversaries with increasing skill| alongside Special Forces warrior Rita Vrataski (Blunt). And| as Cage and Vrataski take the fight to the aliens| each repeated
encounter gets them one step closer to defeating the enemy.

Edge.of.Tomorrow.2014.TS.v2.XviD.AC3.2.0-RARBG

http://www.imdb.com/title/tt1631867/

Screens:
image
image
image
image
image
image
image
image
image
image

Info:
Format : AVI
Format/Info : Audio Video Interleave
Format profile : OpenDML
File size : 3.15 GiB
Duration : 1h 45mn
Overall bit rate : 4 267 Kbps
Movie name : RARBG.COM - Edge.of.Tomorrow.2014.TS.v2.XviD.AC3.2.0-RARBG
Writing library : VirtualDub build 35491/release
Comment : RARBG.COM - Edge.of.Tomorrow.2014.TS.v2.XviD.AC3.2.0-RARBG

Video
ID : 0
Format : MPEG-4 Visual
Format profile : Simple@L5
Format settings, BVOP : No
Format settings, QPel : No
Format settings, GMC : No warppoints
Format settings, Matrix : Default (H.263)
Codec ID : XVID
Codec ID/Hint : XviD
Duration : 1h 45mn
Bit rate : 4 000 Kbps
Width : 1 280 pixels
Height : 532 pixels
Display aspect ratio : 2.40:1
Frame rate : 25.000 fps
Color space : YUV
Chroma subsampling : 4:2:0
Bit depth : 8 bits
Scan type : Progressive
Compression mode : Lossy
Bits/(Pixel*Frame) : 0.235
Stream size : 2.95 GiB (94%)
Writing library : Lavc55.61.100

Audio
ID : 1
Format : AC-3
Format/Info : Audio Coding 3
Mode extension : CM (complete main)
Format settings, Endianness : Big
Codec ID : 2000
Duration : 1h 45mn
Bit rate mode : Constant
Bit rate : 256 Kbps
Channel(s) : 2 channels
Channel positions : Front: L R
Sampling rate : 44.1 KHz
Bit depth : 16 bits
Compression mode : Lossy
Stream size : 193 MiB (6%)
Alignment : Aligned on interleaves
Interleave, duration : 35 ms (0.87 video frame)
Interleave, preload duration : 522 ms



Notes:
This is the full blown video source , not touched except bitrate
Audio: MiLLENiUM [THX]
Greetz to everyone :)

TRACKERSEEDLEECHDOWNLOADED
udp://tracker.coppersurfer.tk:6969/announce
http://mgtracker.org:2710/announce
udp://9.rarbg.me:2710/announce
udp://11.rarbg.me:80/announce
udp://10.rarbg.me:80/announce
udp://12.rarbg.me:80/announce
udp://9.rarbg.com:2710/announce
udp://open.demonii.com:1337/announce
udp://tracker.publicbt.com:80/announce
udp://tracker.istole.it:80/announce
udp://tracker.openbittorrent.com:80/announce
udp://tracker.istole.it:6969/announce
http://tracker.istole.it/announce
http://tracker1.wasabii.com.tw:6969/announce
http://tracker.leechers-paradise.org:6969/announce
http://bt.careland.com.cn:6969/announce
http://bttracker.crunchbanglinux.org:6969/announce
http://tracker.trackerfix.com/announce
udp://tracker.ccc.de:80/announce
http://tracker.thepiratebay.org/announce
http://210.244.71.11:6969/announce
http://shadowshq.eddie4.nl:6969/announce
http://shadowshq.yi.org:6969/announce
http://www.eddie4.nl:6969/announce
http://retracker.telecom.kz/announce
http://eddie4.nl:6969/announce
http://server1.9sheng.cn:6969/announce
http://sugoi.pomf.se/announce
http://server2.9sheng.cn:6969/announce
http://121.14.98.151:9090/announce
udp://tracker-ccc.de:6969/announce
FILESIZE
Edge.of.Tomorrow.2014.TS.v2.XviD.AC3.2.0-RARBG.avi3.15 GB
RARBG.com.avi1.14 MB
Edge.of.Tomorrow.2014.TS.v2.XviD.AC3.2.0-RARBG.nfo3.24 KB
RARBG.com.txt31 B

Related results

Date Title Size Files Seeds Leechs Category Health
Video(Movies) 2.04 GB 4 2014-07-08 3 0 100%
Video(Movies) 1.62 GB 4 2014-06-04 0 1 25%
Video(Movies) 1.67 GB 4 2014-06-09 0 1 25%
Video(Movies) 906.61 MB 4 2014-06-17 1 0 25%
Video(Movies) 818.34 MB 4 2014-04-29 1 0 25%
Video(Movies) 3.22 GB 4 2014-09-08 1 0 25%
Video(Movies) 3.51 GB 4 2014-09-08 5 0 100%
Video(Movies) 988.28 MB 4 2014-09-08 1 0 25%

Login

Account deleting

Are you sure you want to delete your account?

WARNING: This action cannot be undone!!!