Login / Register
TeleSync

Edge of Tomorrow 2014 HDTS READNFO x264 AC3-MiLLENiUM

Category: Video
Type: Movies
Movie Title: Edge of Tomorrow
Detected quality: TeleSync
Release date: 2014-06-05
Cast: Tom Cruise,Emily Blunt,Brendan Gleeson,Bill Paxton,Jonas Armstrong,Tony Way,Kick Gurry,Franz Drameh,Laurent Plancel,Charlotte Riley,Noah Taylor,Natasha Goulden,Jeremy Piven,Marianne Jean-Baptiste,Lara Pulver,David Kaye,Terence Maynard,Philip Harvey
Genre: Action, Adventure, Sci-Fi
External Links: IMDB
Director: Doug Liman
Producers: Bruce Berman,Jeffrey Silver,Tim Lewis,Kim H. Winther,Tom Lassally,Gregory Jacobs,Erwin Stoff,Doug Liman,Greg Silverman,Joby Harold,Jon Berg,Jason Hoffs,David Bartis,Hidemi Fukuhara
Writers: Christopher McQuarrie,Jez Butterworth,John-Henry Butterworth,Hiroshi Sakurazaka
Duration: 113
IMDB rating: 8.0 (267,298 votes)
Summary: A military officer is brought into an alien war against an extraterrestrial enemy who can reset the day and know the future. When this officer is enabled with the same power, he teams up with a Special Forces warrior to try and end the war.
Votes
Good: 0
Bad: 0
GoodBad
1
Seeders
0
Leechers

Added: 2014-07-10

Size: 1.39 GB

Health: 25%

Hash (Base16): DB429AA4C0BB42B5910A51C6C5B2D06A2DCB4FA2

Hash (Base32): 3NBJVJGAXNBLLEIKKHDMLMWQNIW4WT5C

DownloadBookmark
^

Edge of Tomorrow 2014 HDTS READNFO x264 AC3-MiLLENiUM

image

Title: Edge of Tomorrow (2014)
IMDB Rating: 8.1/10
Genres: Action
Actors: Tom Cruise , Emily Blunt , Brendan Gleeson , Bill Paxton , Jonas Armstrong , Tony Way , Kick Gurry , Franz Drameh , Dragomir Mrsic , Charlotte Riley , Masayoshi Haneda , Terence Maynard , Noah Taylor , Lara Pulver , Madeleine Mantock
Runtime: 113
Year: 2014
Plot:
An alien race has hit the Earth in an unrelenting assault| unbeatable by any military unit in the world. Major William Cage (Cruise) is an officer who has never seen
a day of combat when he is unceremoniously dropped into what amounts to a suicide mission. Killed within minutes| Cage now finds himself inexplicably thrown into a
time loop-forcing him to live out the same brutal combat over and over| fighting and dying again...and again. But with each battle| Cage becomes able to engage the
adversaries with increasing skill| alongside Special Forces warrior Rita Vrataski (Blunt). And| as Cage and Vrataski take the fight to the aliens| each repeated
encounter gets them one step closer to defeating the enemy. [mediainfo]


Edge of Tomorrow 2014 HDTS READNFO x264 AC3-MiLLENiUM

General

Source...............: TC720P [THANKS]
IMDb Information.... : http://www.imdb.com/title/tt1631867/
Sample Included......: yes

NOTES: Corrected the color best we could, cropped the site logo and subs, resized, applyed a few adjustments increased the darker areas n stuff and got pretty nice, complain or dont... if you dont like it lets see your attempt :) enjoy

General
Complete name : Edge of Tomorrow 2014 HDTS READNFO x264 AC3-MiLLENiUM.mkv
Format : Matroska
Format version : Version 2
File size : 1.37 GiB
Duration : 1h 47mn
Overall bit rate mode : Variable
Overall bit rate : 1 823 Kbps
Encoded date : UTC 2014-07-10 16:59:53
Writing application : mkvmerge v7.0.0 ('Where We Going') 32bit built on Jun 9 2014 15:08:34
Writing library : libebml v1.3.0 + libmatroska v1.4.1

Video
ID : 1
Format : AVC
Format/Info : Advanced Video Codec
Format profile : [email protected]
Format settings, CABAC : Yes
Format settings, ReFrames : 3 frames
Codec ID : V_MPEG4/ISO/AVC
Duration : 1h 47mn
Bit rate mode : Variable
Bit rate : 1 402 Kbps
Maximum bit rate : 40.0 Mbps
Width : 720 pixels
Height : 268 pixels
Display aspect ratio : 2.687
Frame rate mode : Constant
Frame rate : 25.000 fps
Color space : YUV
Chroma subsampling : 4:2:0
Bit depth : 8 bits
Scan type : Progressive
Bits/(Pixel*Frame) : 0.291
Stream size : 1.06 GiB (77%)
Writing library : x264 core 142 r2431 ac76440

Audio
ID : 2
Format : AC-3
Format/Info : Audio Coding 3
Mode extension : CM (complete main)
Format settings, Endianness : Big
Codec ID : A_AC3
Duration : 1h 47mn
Bit rate mode : Constant
Bit rate : 384 Kbps
Channel(s) : 2 channels
Channel positions : Front: L R
Sampling rate : 48.0 KHz
Bit depth : 16 bits
Compression mode : Lossy
Stream size : 296 MiB (21%)
Language : English
Default : Yes
Forced : No

[/mediainfo]

TRACKERSEEDLEECHDOWNLOADED
udp://tracker.coppersurfer.tk:6969/announce
udp://9.rarbg.me:2710/announce
udp://11.rarbg.me:80/announce
udp://10.rarbg.me:80/announce
udp://12.rarbg.me:80/announce
udp://9.rarbg.com:2710/announce
udp://open.demonii.com:1337/announce
udp://tracker.publicbt.com:80/announce
udp://tracker.istole.it:80/announce
udp://tracker.openbittorrent.com:80/announce
udp://tracker.istole.it:6969/announce
http://tracker.istole.it/announce
http://tracker.trackerfix.com/announce
udp://tracker.ccc.de:80/announce
http://tracker.thepiratebay.org/announce
udp://tracker-ccc.de:6969/announce
FILESIZE
Edge of Tomorrow 2014 HDTS READNFO x264 AC3-MiLLENiUM.mkv1.37 GB
RARBG.com.txt31 B
Sample.mkv25.11 MB
ontheedge.nfo4.31 KB

Related results

Date Title Size Files Seeds Leechs Category Health
Video(Movies) 1.39 GB 4 2014-07-09 0 2 25%
Video(Movies) 1.39 GB 5 2014-07-09 1 0 25%

Login

Account deleting

Are you sure you want to delete your account?

WARNING: This action cannot be undone!!!