Login / Register
TeleSync

Edge of Tomorrow 2014 HDTS XVID AC3 ACAB

Category: Video
Type: Movies
Movie Title: Edge of Tomorrow
Detected quality: TeleSync
Release date: 2014-06-05
Cast: Tom Cruise,Emily Blunt,Brendan Gleeson,Bill Paxton,Jonas Armstrong,Tony Way,Kick Gurry,Franz Drameh,Laurent Plancel,Charlotte Riley,Noah Taylor,Natasha Goulden,Jeremy Piven,Marianne Jean-Baptiste,Lara Pulver,David Kaye,Terence Maynard,Philip Harvey
Genre: Action, Adventure, Sci-Fi
External Links: IMDB
Director: Doug Liman
Producers: Bruce Berman,Jeffrey Silver,Tim Lewis,Kim H. Winther,Tom Lassally,Gregory Jacobs,Erwin Stoff,Doug Liman,Greg Silverman,Joby Harold,Jon Berg,Jason Hoffs,David Bartis,Hidemi Fukuhara
Writers: Christopher McQuarrie,Jez Butterworth,John-Henry Butterworth,Hiroshi Sakurazaka
Duration: 113
IMDB rating: 8.0 (267,298 votes)
Summary: A military officer is brought into an alien war against an extraterrestrial enemy who can reset the day and know the future. When this officer is enabled with the same power, he teams up with a Special Forces warrior to try and end the war.
Votes
Good: 0
Bad: 0
GoodBad
1
Seeders
0
Leechers

Added: 2014-07-10

Size: 1.47 GB

Health: 25%

Hash (Base16): B054D5FA2F907371203924D04B95AE59AF9CFF36

Hash (Base32): WBKNL6RPSBZXCIBZETIEXFNOLGXZZ7ZW

DownloadBookmark
^

Edge of Tomorrow 2014 HDTS XVID AC3 ACAB

image

Title: Edge of Tomorrow (2014)
IMDB Rating: 8.1/10
Genres: Action
Actors: Tom Cruise , Emily Blunt , Brendan Gleeson , Bill Paxton , Jonas Armstrong , Tony Way , Kick Gurry , Franz Drameh , Dragomir Mrsic , Charlotte Riley , Masayoshi Haneda , Terence Maynard , Noah Taylor , Lara Pulver , Madeleine Mantock
Runtime: 113
Year: 2014
Plot:
An alien race has hit the Earth in an unrelenting assault| unbeatable by any military unit in the world. Major William Cage (Cruise) is an officer who has never seen
a day of combat when he is unceremoniously dropped into what amounts to a suicide mission. Killed within minutes| Cage now finds himself inexplicably thrown into a
time loop-forcing him to live out the same brutal combat over and over| fighting and dying again...and again. But with each battle| Cage becomes able to engage the
adversaries with increasing skill| alongside Special Forces warrior Rita Vrataski (Blunt). And| as Cage and Vrataski take the fight to the aliens| each repeated
encounter gets them one step closer to defeating the enemy. [mediainfo]


Format : AVI
Format/Info : Audio Video Interleave
File size : 1.46 GiB
Duration : 1h 47mn
Overall bit rate : 1 933 Kbps
Writing library : VirtualDub build 30091/release

Video
ID : 0
Format : MPEG-4 Visual
Format profile : Advanced Simple@L5
Format settings, BVOP : 2
Format settings, QPel : No
Format settings, GMC : No warppoints
Format settings, Matrix : Default (H.263)
Muxing mode : Packed bitstream
Codec ID : XVID
Codec ID/Hint : XviD
Duration : 1h 47mn
Bit rate : 1 795 Kbps
Width : 720 pixels
Height : 304 pixels
Display aspect ratio : 2.35:1
Frame rate : 25.000 fps
Color space : YUV
Chroma subsampling : 4:2:0
Bit depth : 8 bits
Scan type : Progressive
Compression mode : Lossy
Bits/(Pixel*Frame) : 0.328
Stream size : 1.35 GiB (93%)
Writing library : XviD 65

Audio
ID : 1
Format : AC-3
Format/Info : Audio Coding 3
Mode extension : CM (complete main)
Format settings, Endianness : Big
Codec ID : 2000
Duration : 1h 47mn
Bit rate mode : Constant
Bit rate : 128 Kbps
Channel(s) : 2 channels
Channel positions : Front: L R
Sampling rate : 48.0 KHz
Bit depth : 16 bits
Compression mode : Lossy
Stream size : 98.8 MiB (7%)
Alignment : Aligned on interleaves
Interleave, duration : 40 ms (1.00 video frame)
Interleave, preload duration : 512 ms


[/mediainfo]

TRACKERSEEDLEECHDOWNLOADED
udp://tracker.coppersurfer.tk:6969/announce
http://mgtracker.org:2710/announce
udp://mgtracker.org:2710/announce
udp://9.rarbg.me:2710/announce
udp://11.rarbg.me:80/announce
udp://10.rarbg.me:80/announce
udp://12.rarbg.me:80/announce
udp://9.rarbg.com:2710/announce
udp://open.demonii.com:1337/announce
udp://tracker.publicbt.com:80/announce
udp://tracker.istole.it:80/announce
udp://tracker.openbittorrent.com:80/announce
udp://tracker.istole.it:6969/announce
http://tracker.istole.it/announce
http://tracker.trackerfix.com/announce
udp://tracker.ccc.de:80/announce
http://tracker.thepiratebay.org/announce
udp://tracker-ccc.de:6969/announce
FILESIZE
Edge of Tomorrow 2014 HDTS XVID AC3 ACAB sample.avi18.16 MB
Edge of Tomorrow 2014 HDTS XVID AC3 ACAB.avi1.46 GB
RARBG.com.txt31 B

Related results

Date Title Size Files Seeds Leechs Category Health
Video(Movies) 2.04 GB 4 2014-07-08 3 3 100%
Video(Movies) 1.07 GB 3 2014-06-09 3 0 100%
Video(Movies) 1.24 GB 2 2014-07-03 0 1 25%
Video(Movies) 1.37 GB 1 2014-06-07 13 0 100%
Video(TV) 274.27 MB 2 2014-04-28 1 0 25%
Video(TV) 305.18 MB 1 2014-05-04 11 6 100%
Video(Movies) 1.65 GB 2 2014-09-16 566 82 100%
Video(TV) 1.02 GB 1 2014-11-10 0 2 25%

Login

Account deleting

Are you sure you want to delete your account?

WARNING: This action cannot be undone!!!