Login / Register

Ghost.in.the.Shell.Arise.Border.3.Ghost.Tears.2014.720p.BluRay.x264.DD.5.1-RARBG

Category: Video
Type: Anime
Movie Title: Ghost in the Shell Arise: Border 3 - Ghost Tears
Cast: Maaya Sakamoto,Aya Hisakawa,Miyuki Sawashiro,Kazuya Nakai,Yoji Ueda,Mayumi Asano,Ikkyu Juku,Tarusuke Shingaki,Shunsuke Sakuya,Tatsuhisa Suzuki,Elizabeth Maxwell,Ken'ichirĂ´ Matsuda,Takehiro Hasu,Ai Kayano,Yoji Ueda,Takurou Nakakuni,Shinya Hamazoe
Genre: Animation, Action, Sci-Fi
External Links: IMDB
Director: Kazuchika Kise
Producer: Marie-Claude Beauchamp
Writers: Masamune Shirow,Tow Ubukata
Duration: 80
Summary: The anime's story is set in 2027, one year after the end of the fourth non-nuclear war. New Port City is still reeling from the war's aftermath when it suffers a bombing caused by a self-propelled mine. Then, a military member implicated in arms-dealing bribes is gunned down. During the investigation, Public Security Section's Daisuke Aramaki encounters Motoko Kusanagi, the cyborg wizard-level hacker assigned to the military's 501st Secret Unit. Batou, a man with the "eye that does not sleep," suspects that Kusanagi is the one behind the bombing. The Niihama Prefectural Police detective Togusa is pursuing his own dual cases of the shooting death and a prostitute's murder. Motoko herself is being watched by the 501st Secret Unit's head Kurutsu and cyborg agents.
Votes
Good: 0
Bad: 0
GoodBad
1
Seeders
1
Leechers

Added: 2014-07-01

Size: 2.56 GB

Health: 25%

Hash (Base16): DA925241A589C3A3E3AC81975726B569B957C74D

Hash (Base32): 3KJFEQNFRHB2HY5MQGLVOJVVNG4VPR2N

DownloadBookmark
^

Ghost.in.the.Shell.Arise.Border.3.Ghost.Tears.2014.720p.BluRay.x264.DD.5.1-RARBG

image

Title: Ghost in the Shell Arise: Border 3 - Ghost Tears (2014)
IMDB Rating: 7.1/10
Genres: Animation , Action
Actors: Maaya Sakamoto
Year: 2014


Ghost.in.the.Shell.Arise.Border.3.Ghost.Tears.2014.720p.BluRay.x264.DD.5.1-RARBG

http://www.imdb.com/title/tt3579524/

Screens:
image
image
image
image
image
image

Info:

[mediainfo]

Video
ID : 1
Format : AVC
Format/Info : Advanced Video Codec
Format profile : High@L4.1
Format settings, CABAC : Yes
Format settings, ReFrames : 4 frames
Codec ID : V_MPEG4/ISO/AVC
Duration : 58mn 25s
Bit rate : 5 500 Kbps
Width : 1 280 pixels
Height : 720 pixels
Display aspect ratio : 16:9
Frame rate mode : Constant
Frame rate : 23.976 fps
Color space : YUV
Chroma subsampling : 4:2:0
Bit depth : 8 bits
Scan type : Progressive
Bits/(Pixel*Frame) : 0.249
Stream size : 2.25 GiB (88%)
Title : Ghost.in.the.Shell.Arise.Border.3.Ghost.Tears.2014.720p.BluRay.x264.DD.5.1-RARBG
Writing library : x264 core 142 r2431 ac76440
Default : Yes
Forced : No
Color primaries : BT.709
Transfer characteristics : BT.709
Matrix coefficients : BT.709

Audio
ID : 2
Format : AC-3
Format/Info : Audio Coding 3
Mode extension : CM (complete main)
Format settings, Endianness : Big
Codec ID : A_AC3
Duration : 58mn 25s
Bit rate mode : Constant
Bit rate : 640 Kbps
Channel(s) : 6 channels
Channel positions : Front: L C R, Side: L R, LFE
Sampling rate : 48.0 KHz
Bit depth : 16 bits
Compression mode : Lossy
Stream size : 267 MiB (10%)
Title : Ghost.in.the.Shell.Arise.Border.3.Ghost.Tears.2014.720p.BluRay.x264.DD.5.1-RARBG
Language : Japanese
Default : Yes
Forced : No

Text #1
ID : 3
Format : PGS
Muxing mode : zlib
Codec ID : S_HDMV/PGS
Codec ID/Info : The same subtitle format used on BDs/HD-DVDs
Language : English
Default : No
Forced : No

Text #2
ID : 4
Format : PGS
Muxing mode : zlib
Codec ID : S_HDMV/PGS
Codec ID/Info : The same subtitle format used on BDs/HD-DVDs
Language : Japanese
Default : No
Forced : No

Text #3
ID : 5
Format : PGS
Muxing mode : zlib
Codec ID : S_HDMV/PGS
Codec ID/Info : The same subtitle format used on BDs/HD-DVDs
Language : Chinese
Default : No
Forced : No

Menu
00:00:00.000 : :Chapter 1
00:03:50.397 : :Chapter 2
00:04:52.459 : :Chapter 3
00:19:58.614 : :Chapter 4
00:27:39.825 : :Chapter 5
00:41:10.468 : :Chapter 6
00:53:50.978 : :Chapter 7
00:57:47.631 : :Chapter 8
00:58:12.656 : :Chapter 9


[/mediainfo]

Notes:
Greetz to everyone :)

TRACKERSEEDLEECHDOWNLOADED
udp://tracker.coppersurfer.tk:6969/announce1049
http://mgtracker.org:2710/announce
udp://9.rarbg.me:2710/announce
udp://11.rarbg.me:80/announce
udp://10.rarbg.me:80/announce
udp://12.rarbg.me:80/announce
udp://9.rarbg.com:2710/announce
udp://open.demonii.com:1337/announce
udp://tracker.publicbt.com:80/announce
udp://tracker.istole.it:80/announce
udp://tracker.openbittorrent.com:80/announce
udp://tracker.istole.it:6969/announce
http://tracker.istole.it/announce
http://tracker.leechers-paradise.org:6969/announce
http://bt.careland.com.cn:6969/announce
http://tracker.trackerfix.com/announce
udp://tracker.ccc.de:80/announce
http://tracker.thepiratebay.org/announce
http://shadowshq.eddie4.nl:6969/announce
http://shadowshq.yi.org:6969/announce
http://www.eddie4.nl:6969/announce
http://eddie4.nl:6969/announce
http://server1.9sheng.cn:6969/announce
udp://tracker-ccc.de:6969/announce
FILESIZE
Ghost.in.the.Shell.Arise.Border.3.Ghost.Tears.2014.720p.BluRay.x264.DD.5.1-RARBG.mkv2.56 GB
RARBG.com.mp4992.93 KB
Ghost.in.the.Shell.Arise.Border.3.Ghost.Tears.2014.720p.BluRay.x264.DD.5.1-RARBG.nfo4.81 KB
RARBG.com.txt31 B

Related results

Date Title Size Files Seeds Leechs Category Health
Video(Anime) 1.79 GB 4 2014-07-13 2 0 100%
Video(Anime) 587.92 MB 5 2014-06-30 0 1 25%
Video(Anime) 3.06 GB 1 2014-07-03 0 1 25%
Video(Anime) 1.19 GB 1 2014-07-04 0 1 25%
Video(Anime) 4.37 GB 2 2013-12-04 1 2 25%
Video(Anime) 2.44 GB 3 2013-07-23 4 2 100%
Video(Anime) 2.19 GB 2 2013-12-04 7 0 100%
Video(Anime) 753.39 MB 2 2014-08-02 1 0 25%

Login

Account deleting

Are you sure you want to delete your account?

WARNING: This action cannot be undone!!!