Login / Register

Ghost.in.the.Shell.Arise.Border.3.Ghost.Tears.2014.720p.BRRip.XviD.AC3-RARBG

Category: Video
Type: Anime
Movie Title: Ghost in the Shell Arise: Border 3 - Ghost Tears
Cast: Maaya Sakamoto,Aya Hisakawa,Miyuki Sawashiro,Kazuya Nakai,Yoji Ueda,Mayumi Asano,Ikkyu Juku,Tarusuke Shingaki,Shunsuke Sakuya,Tatsuhisa Suzuki,Elizabeth Maxwell,Ken'ichirĂ´ Matsuda,Takehiro Hasu,Ai Kayano,Yoji Ueda,Takurou Nakakuni,Shinya Hamazoe
Genre: Animation, Action, Sci-Fi
External Links: IMDB
Director: Kazuchika Kise
Producer: Marie-Claude Beauchamp
Writers: Masamune Shirow,Tow Ubukata
Duration: 80
Summary: The anime's story is set in 2027, one year after the end of the fourth non-nuclear war. New Port City is still reeling from the war's aftermath when it suffers a bombing caused by a self-propelled mine. Then, a military member implicated in arms-dealing bribes is gunned down. During the investigation, Public Security Section's Daisuke Aramaki encounters Motoko Kusanagi, the cyborg wizard-level hacker assigned to the military's 501st Secret Unit. Batou, a man with the "eye that does not sleep," suspects that Kusanagi is the one behind the bombing. The Niihama Prefectural Police detective Togusa is pursuing his own dual cases of the shooting death and a prostitute's murder. Motoko herself is being watched by the 501st Secret Unit's head Kurutsu and cyborg agents.
Votes
Good: 0
Bad: 0
GoodBad
0
Seeders
1
Leechers

Added: 2014-07-01

Size: 1.31 GB

Health: 25%

Hash (Base16): 8BEB682C3948EF291C5C6B6971E7798CFC6C05FB

Hash (Base32): RPVWQLBZJDXSSHC4NNUXDZ3ZRT6GYBP3

DownloadBookmark
^

Ghost.in.the.Shell.Arise.Border.3.Ghost.Tears.2014.720p.BRRip.XviD.AC3-RARBG

image

Title: Ghost in the Shell Arise: Border 3 - Ghost Tears (2014)
IMDB Rating: 7.1/10
Genres: Animation , Action
Actors: Maaya Sakamoto
Year: 2014


Ghost.in.the.Shell.Arise.Border.3.Ghost.Tears.2014.720p.BRRip.XviD.AC3-RARBG

http://www.imdb.com/title/tt3579524/

Screens:
image
image
image
image
image
image

Subtitles: English subtitles included in movie dir!

Info:

[mediainfo]

Format : AVI
Format/Info : Audio Video Interleave
File size : 1.31 GiB
Duration : 58mn 25s
Overall bit rate : 3 202 Kbps
Movie name : RARBG.COM - Ghost.in.the.Shell.Arise.Border.3.Ghost.Tears.2014.720p.BRRip.XviD.AC3-RARBG
Writing library : VirtualDub build 35491/release
Comment : RARBG.COM - Ghost.in.the.Shell.Arise.Border.3.Ghost.Tears.2014.720p.BRRip.XviD.AC3-RARBG

Video
ID : 0
Format : MPEG-4 Visual
Format profile : Simple@L5
Format settings, BVOP : No
Format settings, QPel : No
Format settings, GMC : No warppoints
Format settings, Matrix : Default (H.263)
Codec ID : XVID
Codec ID/Hint : XviD
Duration : 58mn 25s
Bit rate : 2 553 Kbps
Width : 1 280 pixels
Height : 720 pixels
Display aspect ratio : 16:9
Frame rate : 23.976 fps
Color space : YUV
Chroma subsampling : 4:2:0
Bit depth : 8 bits
Scan type : Progressive
Compression mode : Lossy
Bits/(Pixel*Frame) : 0.116
Stream size : 1.04 GiB (80%)
Writing library : Lavc55.61.100

Audio
ID : 1
Format : AC-3
Format/Info : Audio Coding 3
Mode extension : CM (complete main)
Format settings, Endianness : Big
Codec ID : 2000
Duration : 58mn 25s
Bit rate mode : Constant
Bit rate : 640 Kbps
Channel(s) : 6 channels
Channel positions : Front: L C R, Side: L R, LFE
Sampling rate : 48.0 KHz
Bit depth : 16 bits
Compression mode : Lossy
Stream size : 267 MiB (20%)
Alignment : Aligned on interleaves
Interleave, duration : 42 ms (1.00 video frame)
Interleave, preload duration : 512 ms




[/mediainfo]

Notes:
Greetz to everyone :)

TRACKERSEEDLEECHDOWNLOADED
udp://9.rarbg.me:2710/announce
udp://11.rarbg.me:80/announce
udp://10.rarbg.me:80/announce
udp://12.rarbg.me:80/announce
udp://9.rarbg.com:2710/announce
udp://open.demonii.com:1337/announce
udp://tracker.publicbt.com:80/announce
udp://tracker.istole.it:80/announce
udp://tracker.openbittorrent.com:80/announce
udp://tracker.istole.it:6969/announce
http://tracker.istole.it/announce
http://tracker.trackerfix.com/announce
udp://tracker.ccc.de:80/announce
http://tracker.thepiratebay.org/announce
udp://tracker-ccc.de:6969/announce
FILESIZE
Ghost.in.the.Shell.Arise.Border.3.Ghost.Tears.2014.720p.BRRip.XviD.AC3-RARBG.avi1.31 GB
RARBG.com.avi1.14 MB
Ghost.in.the.Shell.Arise.Border.3.Ghost.Tears.2014.720p.BRRip.XviD.AC3-RARBG.srt53.88 KB
Ghost.in.the.Shell.Arise.Border.3.Ghost.Tears.2014.720p.BRRip.XviD.AC3-RARBG.nfo3.33 KB
RARBG.com.txt31 B

Related results

Date Title Size Files Seeds Leechs Category Health
Video(Anime) 1.79 GB 4 2014-07-13 1 1 25%
Video(Anime) 5.39 GB 4 2014-06-30 0 1 25%
Video(Anime) 709.15 MB 4 2014-07-01 1 0 25%
Video(Anime) 3.06 GB 1 2014-07-03 0 1 25%
Video(Anime) 1.19 GB 1 2014-07-04 0 1 25%
Video(Anime) 2.44 GB 3 2013-07-23 6 1 100%
Video(Anime) 2.19 GB 2 2013-12-04 5 0 100%
Video(Anime) 753.39 MB 2 2014-08-02 1 1 25%

Login

Account deleting

Are you sure you want to delete your account?

WARNING: This action cannot be undone!!!