Login / Register

Falling.Skies.S04E04.720p.HDTV.x264-KILLERS[rartv]

Category: Video
Type: TV
Language: English
Movie Title: Falling Skies
Season: 4
Episode: 4
Episode Title: Evolve or Die
Release date: 2014-07-12
Cast: Henry Czerny,Will Patton,Steven Weber,Noah Wyle,Blair Brown,Nick Alachiotis,Adam Butcher,Sarah Carter,Sarah Carver,Colin Cunningham,Lynne Deragon,Lynne Deragon,Dale Dye,Brian Frank,Moon Bloodgood,Drew Roy,Maxim Knight,Seychelle Gabriel,Peter Shinkoda
Genre: Action, Sci-Fi, Thriller
External Links: IMDB
Directors: Jonathan Frakes,John Dahl,Noah Wyle,Carl Franklin,Michael Katleman,Mikael Salomon,Greg Beeman,Holly Dale,Bill Eagles,Seith Mann,Adam Kane,Nathaniel Goodman,Miguel Sapochnik,Brad Turner,David Solomon,Sergio Mimica-Gezzan,James Marshall,Fred Toye
Producers: Steven Spielberg,Noah Wyle,Graham Yost,Remi Aubuchon,Greg Beeman,Ayanna Floyd,Justin Falvey,Darryl Frank,Melinda Hsu Taylor,Cyrus Yavneh,John Ryan,Grace Gilroy,Bradley Thompson,David Weddle,Scott Schofield,Mark Verheiden,Robert Rodat,Raven Metzner
Writers: Graham Yost,Remi Aubuchon,Carol Barbee,David Eick,Ayanna Floyd,Joel Anderson Thompson,Melinda Hsu Taylor,John Wirth,Bradley Thompson,David Weddle,Mark Verheiden,Robert Rodat,Josh Pate,Fred Golan,Raven Metzner,Ryan Mottesheard,Jordan Rosenberg,Bryan Oh
Duration: 42
Original run: 2011-06-18
IMDB rating: 7.3 (59,005 votes)
Summary: Survivors of an alien attack on earth gather together to fight for their lives and fight back.
Votes
Good: 0
Bad: 0
GoodBad
1
Seeders
0
Leechers

Added: 2014-07-14

Size: 1.05 GB

Health: 25%

Hash (Base16): 40735C91664A23F6CD2A412853810FBF9E126692

Hash (Base32): IBZVZELGJIR7NTJKIEUFHAIPX6PBEZUS

DownloadBookmark
^

Falling.Skies.S04E04.720p.HDTV.x264-KILLERS[rartv]

image
[mediainfo]

Video
ID : 1
Format : AVC
Format/Info : Advanced Video Codec
Format profile : [email protected]
Format settings, CABAC : Yes
Format settings, ReFrames : 5 frames
Codec ID : V_MPEG4/ISO/AVC
Duration : 41mn 26s
Bit rate : 2 988 Kbps
Width : 1 280 pixels
Height : 720 pixels
Display aspect ratio : 16:9
Frame rate mode : Constant
Frame rate : 23.976 fps
Color space : YUV
Chroma subsampling : 4:2:0
Bit depth : 8 bits
Scan type : Progressive
Bits/(Pixel*Frame) : 0.135
Stream size : 886 MiB (85%)
Writing library : x264 core 142 r2431 ac76440
Encoding settings : cabac=1 / ref=5 / deblock=1:0:0 / analyse=0x3:0x113 / me=umh / subme=8 / psy=1 / psy_rd=1.00:0.00 / mixed_ref=1 / me_range=16 / chroma_me=1 / trellis=1 / 8x8dct=1 / cqm=0 / deadzone=21,11 / fast_pskip=1 / chroma_qp_offset=-2 / threads=18 / lookahead_threads=3 / sliced_threads=0 / nr=0 / decimate=1 / interlaced=0 / bluray_compat=0 / constrained_intra=0 / bframes=3 / b_pyramid=2 / b_adapt=2 / b_bias=0 / direct=3 / weightb=1 / open_gop=0 / weightp=2 / keyint=250 / keyint_min=23 / scenecut=40 / intra_refresh=0 / rc_lookahead=50 / rc=crf / mbtree=1 / crf=18.0 / qcomp=0.60 / qpmin=0 / qpmax=69 / qpstep=4 / ip_ratio=1.40 / aq=1:1.00
Language : English
Default : Yes
Forced : No
Matrix coefficients : BT.709

Audio
ID : 2
Format : AC-3
Format/Info : Audio Coding 3
Mode extension : CM (complete main)
Format settings, Endianness : Big
Codec ID : A_AC3
Duration : 41mn 26s
Bit rate mode : Constant
Bit rate : 448 Kbps
Channel(s) : 6 channels
Channel positions : Front: L C R, Side: L R, LFE
Sampling rate : 48.0 KHz
Bit depth : 16 bits
Compression mode : Lossy
Stream size : 133 MiB (13%)
Default : Yes
Forced : No

[/mediainfo]

TRACKERSEEDLEECHDOWNLOADED
udp://tracker.coppersurfer.tk:6969/announce
udp://mgtracker.org:2710/announce
udp://9.rarbg.me:2710/announce
udp://11.rarbg.me:80/announce
udp://10.rarbg.me:80/announce
udp://12.rarbg.me:80/announce
udp://9.rarbg.com:2710/announce
udp://open.demonii.com:1337/announce
udp://tracker.publicbt.com:80/announce
udp://tracker.istole.it:80/announce
udp://tracker.openbittorrent.com:80/announce
udp://tracker.istole.it:6969/announce
http://tracker.istole.it/announce
http://bt.careland.com.cn:6969/announce
http://bttracker.crunchbanglinux.org:6969/announce
http://tracker.trackerfix.com/announce
udp://tracker.ccc.de:80/announce
http://tracker.thepiratebay.org/announce
udp://tracker-ccc.de:6969/announce
FILESIZE
Falling.Skies.S04E04.720p.HDTV.x264-KILLERS.mkv1.01 GB
RARBG.com.txt31 B
Sample/sample-falling.skies.s04e04.720p.hdtv.x264-killers.mkv38.23 MB
falling.skies.s04e04.720p.hdtv.x264-killers.nfo10.62 KB

Related results

Date Title Size Files Seeds Leechs Category Health
Video(TV) 306.93 MB 3 2014-07-13 1 0 25%
Video(TV) 1.14 GB 3 2014-07-06 0 1 25%
Video(TV) 364.53 MB 3 2014-07-06 1 0 25%
Video(TV) 1.11 GB 4 2014-06-29 0 1 25%
Video(TV) 332.47 MB 3 2014-06-29 0 1 25%
Video(TV) 1.25 GB 3 2014-06-22 0 1 25%
Video(TV) 364.53 MB 3 2014-06-22 0 1 25%
Video(TV) 265.32 MB 3 2014-08-10 1 0 25%
Video(TV) 272.6 MB 3 2014-08-10 0 1 25%
Video(TV) 260.72 MB 3 2014-08-24 1 0 25%

Login

Account deleting

Are you sure you want to delete your account?

WARNING: This action cannot be undone!!!