Login / Register
HDRiP

Need for Speed 2014 BRRip XviD AC3-SANTi

Category: Video
Type: Movies
Movie Title: The Legend of Sarila
Detected quality: HDRiP
Release date: 2014-03-13
Cast: Nancy Florence Savard,Roger Harvey,Paul Risacher,Pierre Tremblay,Christopher Plummer,Rachelle Lefevre,Dustin Milligan,Tim Rozon,Geneviève Bujold,James Kidnie,Tyrone Benskin,Angela Galuppo,Elias Toufexis,Robert Higden,Sonja Ball,Holly O'Brien,Dawn For
Genre: Animation, Adventure, Family
External Links: IMDB
Director: Nancy Florence Savard
Producer: Marie-Claude Beauchamp
Writer: Roger Harvey
Duration: 80
IMDB rating: 6.6 (105,468 votes)
Summary: Three young Inuits set off in search of a promised land to save their clan from starvation.
Votes
Good: 0
Bad: 0
GoodBad
0
Seeders
1
Leechers

Added: 2014-07-13

Size: 2.17 GB

Health: 25%

Hash (Base16): 12F211196AD139C05AB4DC8F1AF899D987453E60

Hash (Base32): CLZBCGLK2E44AWVU3SHRV6EZ3GDUKPTA

DownloadBookmark
^

Need for Speed 2014 BRRip XviD AC3-SANTi

image

Title: Need for Speed (2014)
IMDB Rating: 7.2/10
Genres: Action , Crime , Drama , Thriller
Actors: Aaron Paul , Dominic Cooper , Imogen Poots , Scott Mescudi , Rami Malek , Ramon Rodriguez , Harrison Gilbertson , Dakota Johnson , Stevie Ray Dallimore , Michael Keaton , Alan Pflueger , Brian L. Keaulana , Logan Holladay , Carmela Zumbado , Jalil Jay Lynch
Runtime: 132
Year: 2014
Plot:
Framed by an ex-partner for a murder he did not commit| Tobey Marshall| a financially struggling custom-car builder and street-racer| spends two years in jail
thinking about one moment. Fresh out of prison he reacquires the fastest car his workshop ever built and sold| and seeks to enter a secretive and extremely
high-stakes race known as The DeLeon. His purpose; redemption| recognition from the world of racing and to solve his problems. Yet all this fades in comparison to
his driving reason. Revenge. Above all| revenge. This is a story about love| redemption| revenge and motor oil all swirled together| but above all; It's a story
about fast| fast cars. [mediainfo]


Format : AVI
Format/Info : Audio Video Interleave
Format profile : OpenDML
File size : 2.17 GiB
Duration : 2h 10mn
Overall bit rate : 2 374 Kbps
Writing application : VirtualDubMod 1.5.10.3 | www.virtualdub-fr.org || (build 2550/release)
Writing library : VirtualDubMod build 2550/release

Video
ID : 0
Format : MPEG-4 Visual
Format profile : Advanced [email protected]
Format settings, BVOP : 3
Format settings, QPel : No
Format settings, GMC : No warppoints
Format settings, Matrix : Default (MPEG)
Codec ID : XVID
Codec ID/Hint : XviD
Duration : 2h 10mn
Bit rate : 1 914 Kbps
Width : 720 pixels
Height : 304 pixels
Display aspect ratio : 2.35:1
Frame rate : 23.976 fps
Color space : YUV
Chroma subsampling : 4:2:0
Bit depth : 8 bits
Scan type : Progressive
Compression mode : Lossy
Bits/(Pixel*Frame) : 0.365
Stream size : 1.75 GiB (81%)
Writing library : XviD 1.2.1 (UTC 2008-12-04)

Audio
ID : 1
Format : AC-3
Format/Info : Audio Coding 3
Mode extension : CM (complete main)
Format settings, Endianness : Big
Codec ID : 2000
Duration : 2h 10mn
Bit rate mode : Constant
Bit rate : 448 Kbps
Channel(s) : 6 channels
Channel positions : Front: L C R, Side: L R, LFE
Sampling rate : 48.0 KHz
Bit depth : 16 bits
Compression mode : Lossy
Stream size : 419 MiB (19%)
Alignment : Split accross interleaves
Interleave, duration : 42 ms (1.00 video frame)
Interleave, preload duration : 500 ms

[/mediainfo]

TRACKERSEEDLEECHDOWNLOADED
udp://9.rarbg.me:2710/announce
udp://11.rarbg.me:80/announce
udp://10.rarbg.me:80/announce
udp://12.rarbg.me:80/announce
udp://9.rarbg.com:2710/announce
udp://open.demonii.com:1337/announce
udp://tracker.publicbt.com:80/announce
udp://tracker.istole.it:80/announce
udp://tracker.openbittorrent.com:80/announce
udp://tracker.istole.it:6969/announce
http://tracker.istole.it/announce
http://tracker.trackerfix.com/announce
http://exodus.desync.com:6969/announce
udp://tracker.ccc.de:80/announce
http://tracker.thepiratebay.org/announce
udp://tracker-ccc.de:6969/announce
FILESIZE
RARBG.com.txt31 B
santi-need4speed.brrip.xvid.avi2.17 GB
santi-need4speed.brrip.xvid.sfv195 B
subs/santi-need4speed.brrip.xvid.srt96.58 KB

Related results

Date Title Size Files Seeds Leechs Category Health
Video(Movies) 1.46 GB 36 2009-07-12 0 0 N/A
Video(Movies) 2.17 GB 6 2014-07-11 0 1 25%
Video(Movies) 2.17 GB 5 2014-07-11 1 0 25%
Video(Movies) 2.29 GB 2 2010-03-18 0 0 N/A

Login

Account deleting

Are you sure you want to delete your account?

WARNING: This action cannot be undone!!!