Login / Register
Cam

Transformers.Age.of.Extinction.2014.FIRST.BAD.CAM.ENGLISH.XviD.MP3-RARBG

Category: Video
Type: Movies
Language: English
Movie Title: Transformers: Age of Extinction
Detected quality: Cam
Release date: 2014-06-26
Cast: Nicola Peltz,Mark Wahlberg,Stanley Tucci,Sophia Myles,Jack Reynor,Peter Cullen,Bingbing Li,Titus Welliver,Kelsey Grammer,T.J. Miller,Mark Ryan,Jason M. Varso,John Goodman,Robert Foxworth,Reno Wilson,Frank Welker,John DiMaggio,Patrick Bristow,Michael Bay
Genre: Action, Adventure, Sci-Fi
External Links: IMDB
Director: Michael Bay
Producers: Steven Spielberg,Michael Bay,Don Murphy,Ian Bryce,Allegra Clegg,Matthew Cohan,Tom DeSanto,Lorenzo di Bonaventura,K.C. Hodenfield,Michael Kase,Chiu Wah Lee,Mark Vahradian,Brian Goldner,Steven Spielberg,Regan Riskas
Writer: Ehren Kruger
Duration: 119
IMDB rating: 5.9 (175,237 votes)
Summary: A mechanic and his daughter make a discovery that brings down Autobots and Decepticons - and a paranoid government official - on them.
Votes
Good: 0
Bad: 0
GoodBad
0
Seeders
3
Leechers

Added: 2014-06-27

Size: 2.26 GB

Health: 25%

Hash (Base16): 74E1395234354582229E54FC12EB1E8C7FE79B0D

Hash (Base32): OTQTSURUGVCYEIU6KT6BF2Y6RR76PGYN

DownloadBookmark
^
Notes : missing ~10 minutes on different scenes including a fighting one , lots of heads appearing on the video. But thats all i can do for now ...
Greetz to everyone :)



Transformers.Age.of.Extinction.2014.FIRST.BAD.CAM.ENGLISH.XviD.MP3-RARBG

image

Title: Transformers: Age of Extinction (2014)
Genres: Action , Adventure
Actors: Nicola Peltz , Mark Wahlberg , T.J. Miller , Stanley Tucci , Sophia Myles , Kelsey Grammer , John Goodman , Ken Watanabe , Jack Reynor , Peter Cullen , Thomas Lennon , Abigail Klein , Titus Welliver , John DiMaggio , Bingbing Li
Runtime: 165
Year: 2014
Plot:
An automobile mechanic and his daughter make a discovery that brings down the Autobots and Decepticons - and a paranoid government official - on them.


Transformers.Age.of.Extinction.2014.FIRST.BAD.CAM.ENGLISH.XviD.MP3-RARBG

http://www.imdb.com/title/tt2109248/

Screens:
image
image
image
image
image
image
image
image

Info:

[mediainfo]

Format : AVI
Format/Info : Audio Video Interleave
Format profile : OpenDML
File size : 2.19 GiB
Duration : 2h 27mn
Overall bit rate : 2 125 Kbps
Movie name : RARBG.COM - Transformers.Age.of.Extinction.2014.FIRST.BAD.CAM.ENGLISH.XviD.MP3-RARBG
Writing library : VirtualDub build 35491/release
Comment : RARBG.COM - Transformers.Age.of.Extinction.2014.FIRST.BAD.CAM.ENGLISH.XviD.MP3-RARBG

Video
ID : 0
Format : MPEG-4 Visual
Format profile : Simple@L5
Format settings, BVOP : No
Format settings, QPel : No
Format settings, GMC : No warppoints
Format settings, Matrix : Default (H.263)
Codec ID : XVID
Codec ID/Hint : XviD
Duration : 2h 27mn
Bit rate : 1 982 Kbps
Width : 720 pixels
Height : 304 pixels
Display aspect ratio : 2.35:1
Frame rate : 29.970 fps
Color space : YUV
Chroma subsampling : 4:2:0
Bit depth : 8 bits
Scan type : Progressive
Compression mode : Lossy
Bits/(Pixel*Frame) : 0.302
Stream size : 2.04 GiB (93%)
Writing library : Lavc55.61.100

Audio
ID : 1
Format : MPEG Audio
Format version : Version 1
Format profile : Layer 3
Mode : Joint stereo
Mode extension : MS Stereo
Codec ID : 55
Codec ID/Hint : MP3
Duration : 2h 27mn
Bit rate mode : Constant
Bit rate : 128 Kbps
Channel(s) : 2 channels
Sampling rate : 44.1 KHz
Compression mode : Lossy
Stream size : 135 MiB (6%)
Alignment : Split accross interleaves
Interleave, duration : 33 ms (1.00 video frame)
Interleave, preload duration : 500 ms
Writing library : LAME3.99r
Encoding settings : -m j -V 4 -q 3 -lowpass 17 -b 128

[/mediainfo]

TRACKERSEEDLEECHDOWNLOADED
udp://9.rarbg.me:2710/announce
udp://11.rarbg.me:80/announce
udp://10.rarbg.me:80/announce
udp://12.rarbg.me:80/announce
udp://9.rarbg.com:2710/announce
udp://open.demonii.com:1337/announce
udp://tracker.publicbt.com:80/announce
udp://tracker.istole.it:80/announce
udp://tracker.openbittorrent.com:80/announce
udp://tracker.istole.it:6969/announce
http://tracker.istole.it/announce
http://tracker.trackerfix.com/announce
http://exodus.desync.com:6969/announce
udp://tracker.ccc.de:80/announce
http://www.sumotracker.org/announce
http://open.tracker.thepiratebay.org/announce
FILESIZE
Transformers.Age.of.Extinction.2014.FIRST.BAD.CAM.ENGLISH.XviD.MP3-RARBG.avi2.19 GB
Sample/Sample1.avi37.69 MB
Sample/Sample2.avi32.36 MB
RARBG.com.avi1.14 MB
Transformers.Age.of.Extinction.2014.FIRST.BAD.CAM.ENGLISH.XviD.MP3-RARBG.nfo3.51 KB
RARBG.com.txt31 B

Login

Account deleting

Are you sure you want to delete your account?

WARNING: This action cannot be undone!!!