Login / Register

Sabotage.2014.BRRip.XviD.MP3-RARBG

Category: Video
Type: Movies
Movie Title: The Monkey King: The Legend Begins
Cast: Pou-Soi Cheang,Kam-Yuen Szeto,Edmond Wong,Donnie Yen,Yun-Fat Chow,Aaron Kwok,Joe Chen,Kelly Chen,Gigi Leung,Zilin Zhang,Siu-Fai Cheung,Siu-Wong Fan,Yitian Hai,Peter Ho,Calvin Cheng Ka-Sing,Chung Him Law,Jing Li,Hua Liu,Hai Yi Tian,Irene Wan
Genre: Action, Adventure, Family
External Links: IMDB
Director: Pou-Soi Cheang
Producer: Clarence Yiu-leung Fok
Writer: Kam-Yuen Szeto
Duration: 119
IMDB rating: 6.0/10
Summary: The story of a Buddhist monk's pilgrimage to India to collect religious texts.
Votes
Good: 0
Bad: 0
GoodBad
1
Seeders
0
Leechers

Added: 2014-07-11

Size: 1.38 GB

Health: 25%

Hash (Base16): B1F708F6FEED2DDBB5ADDC9A8100E16E71DB38E5

Hash (Base32): WH3QR5X65UW5XNNN3SNICAHBNZY5WOHF

DownloadBookmark
^
Sabotage.2014.BRRip.XviD.MP3-RARBG

http://imdb.com/title/tt1742334/









Screens:







Info:

[mediainfo]

Format                                   : AVI
Format/Info                              : Audio Video Interleave
File size                                : 1.38 GiB
Duration                                 : 1h 49mn
Overall bit rate                         : 1 803 Kbps
Movie name                               : RARBG.COM - Sabotage.2014.BRRip.XviD.MP3-RARBG
Writing library                          : VirtualDub build 35491/release
Comment                                  : RARBG.COM - Sabotage.2014.BRRip.XviD.MP3-RARBG

Video
ID                                       : 0
Format                                   : MPEG-4 Visual
Format profile                           : [email protected]
Format settings, BVOP                    : No
Format settings, QPel                    : No
Format settings, GMC                     : No warppoints
Format settings, Matrix                  : Default (H.263)
Codec ID                                 : XVID
Codec ID/Hint                            : XviD
Duration                                 : 1h 49mn
Bit rate                                 : 1 599 Kbps
Width                                    : 720 pixels
Height                                   : 390 pixels
Display aspect ratio                     : 1.85:1
Frame rate                               : 23.976 fps
Color space                              : YUV
Chroma subsampling                       : 4:2:0
Bit depth                                : 8 bits
Scan type                                : Progressive
Compression mode                         : Lossy
Bits/(Pixel*Frame)                       : 0.237
Stream size                              : 1.22 GiB (89%)
Writing library                          : Lavc55.61.100

Audio
ID                                       : 1
Format                                   : MPEG Audio
Format version                           : Version 1
Format profile                           : Layer 3
Mode                                     : Joint stereo
Codec ID                                 : 55
Codec ID/Hint                            : MP3
Duration                                 : 1h 49mn
Bit rate mode                            : Constant
Bit rate                                 : 192 Kbps
Channel(s)                               : 2 channels
Sampling rate                            : 48.0 KHz
Compression mode                         : Lossy
Stream size                              : 151 MiB (11%)
Alignment                                : Aligned on interleaves
Interleave, duration                     : 24 ms (0.58 video frame)
Interleave, preload duration             : 504 ms
Writing library                          : LAME3.99.5


[/mediainfo]

Notes:
Greetz to everyone

TRACKERSEEDLEECHDOWNLOADED
udp://9.rarbg.me:2710/announce
udp://11.rarbg.me:80/announce
udp://10.rarbg.me:80/announce
udp://12.rarbg.me:80/announce
udp://9.rarbg.com:2710/announce
udp://open.demonii.com:1337/announce
udp://tracker.publicbt.com:80/announce
udp://tracker.openbittorrent.com:80/announce
udp://tracker.istole.it:6969/announce
http://tracker.istole.it/announce
http://tracker.trackerfix.com/announce
http://tracker.thepiratebay.org/announce
udp://tracker-ccc.de:6969/announce
FILESIZE
Sabotage.2014.BRRip.XviD.MP3-RARBG.avi1.38 GB
RARBG.com.avi1.14 MB
Sabotage.2014.BRRip.XviD.MP3-RARBG.nfo3.09 KB
RARBG.com.txt31 B

Login

Account deleting

Are you sure you want to delete your account?

WARNING: This action cannot be undone!!!