Login / Register

Sabotage.2014.720p.BRRiP.XViD.AC3-LEGi0N

Category: Video
Type: Movies
Movie Title: The Monkey King: The Legend Begins
Cast: Pou-Soi Cheang,Kam-Yuen Szeto,Edmond Wong,Donnie Yen,Yun-Fat Chow,Aaron Kwok,Joe Chen,Kelly Chen,Gigi Leung,Zilin Zhang,Siu-Fai Cheung,Siu-Wong Fan,Yitian Hai,Peter Ho,Calvin Cheng Ka-Sing,Chung Him Law,Jing Li,Hua Liu,Hai Yi Tian,Irene Wan
Genre: Action, Adventure, Family
External Links: IMDB
Director: Pou-Soi Cheang
Producer: Clarence Yiu-leung Fok
Writer: Kam-Yuen Szeto
Duration: 119
IMDB rating: 6.0/10
Summary: The story of a Buddhist monk's pilgrimage to India to collect religious texts.
Votes
Good: 0
Bad: 0
GoodBad
1
Seeders
0
Leechers

Added: 2014-07-11

Size: 3.48 GB

Health: 25%

Hash (Base16): 9959696B74E8CA4C5D7540C21A90002415AA34F2

Hash (Base32): TFMWS23U5DFEYXLVIDBBVEAAEQK2UNHS

DownloadBookmark
^

Screenshots:




***********************************************************************************************
Sabotage.2014.720p.BRRiP.XViD.AC3-LEGi0N
***********************************************************************************************

General Information

Sample Included......: Yes
Source...............: 720p.BluRay.x264-SPARKS
Container............: AVI
Length...............: 1 hour 50 minutes
Size.................: 3.44 GiB
Total Bitrate........: 4 490 Kbps
IMDb Information.....: http://www.imdb.com/title/tt1742334/
Genre................: Action  Crime  Drama  Thriller

Audio Info

Codec................: AC-3
Bitrate..............: 640 Kbps
kHz/bit..............: 48.0 KHz / 16 bits
Channels.............: 6
Language.............: ENGLiSH
Subtitles............: N/A

Video Info

Codec................: XviD
Type.................: 720p BRRiP
Format Profile Level.: Advanced Simple@L5
Resolution...........: 1280x696
Aspect Ratio.........: 16:9
Bitrate..............: 3 840 Kbps
Framerate............: 23.976 FPS

Plot
Members of an elite DEA task force find themselves being taken down one by one
after they rob a drug cartel safe house.

Cast
Arnold Schwarzenegger ... John 'Breacher' Wharton
Sam Worthington ... James 'Monster' Murray
Joe Manganiello ... Joe 'Grinder' Phillips
Josh Holloway ... Eddie 'Neck' Jordan
Terrence Howard ... Julius 'Sugar' Edmonds
Max Martini ... Tom 'Pyro' Roberts
Kevin Vance ... Bryce 'Tripod' McNeely
Mark Schlegel ... 'Smoke' Jennings
Ned Yousef ... Dubai Money Launderer
Mireille Enos ... Lizzy Murray
Maurice Compte ... Sapo
Martin Donovan ... Floyd Demel
Michael Monks ... ASAC Phelps
Nick Chacon ... DEA Sniper
Tim Ware ... Stan Morris (DEA Interrogator #1)

Screenshots





Greetz
FraMeSToR  r3ko  MAJESTiC  4KiNGS  GATEKEEPER
    SC4R  FASM   Noir  CrEwSaDe  SANTi



[mediainfo]
Video
ID                                       : 0
Format                                   : MPEG-4 Visual
Format profile                           : Advanced Simple@L5
Format settings, BVOP                    : 2
Format settings, QPel                    : No
Format settings, GMC                     : No warppoints
Format settings, Matrix                  : Default (H.263)
Codec ID                                 : XVID
Codec ID/Hint                            : XviD
Duration                                 : 1h 49mn
Bit rate                                 : 3 840 Kbps
Width                                    : 1 280 pixels
Height                                   : 696 pixels
Display aspect ratio                     : 1.85:1
Frame rate                               : 23.976 fps
Color space                              : YUV
Chroma subsampling                       : 4:2:0
Bit depth                                : 8 bits
Scan type                                : Progressive
Compression mode                         : Lossy
Bits/(Pixel*Frame)                       : 0.180
Stream size                              : 2.94 GiB (86%)
Writing library                          : XviD 1.2.1 (UTC 2008-12-04)

Audio
ID                                       : 1
Format                                   : AC-3
Format/Info                              : Audio Coding 3
Mode extension                           : CM (complete main)
Format settings, Endianness              : Big
Codec ID                                 : 2000
Duration                                 : 1h 49mn
Bit rate mode                            : Constant
Bit rate                                 : 640 Kbps
Channel(s)                               : 6 channels
Channel positions                        : Front: L C R, Side: L R, LFE
Sampling rate                            : 48.0 KHz
Bit depth                                : 16 bits
Compression mode                         : Lossy
Stream size                              : 502 MiB (14%)
Alignment                                : Split accross interleaves
Interleave, duration                     : 42 ms (1.00 video frame)
Interleave, preload duration             : 500 ms


[/mediainfo]

TRACKERSEEDLEECHDOWNLOADED
udp://9.rarbg.me:2710/announce
udp://11.rarbg.me:80/announce
udp://10.rarbg.me:80/announce
udp://12.rarbg.me:80/announce
udp://9.rarbg.com:2710/announce
udp://open.demonii.com:1337/announce
udp://tracker.publicbt.com:80/announce
udp://tracker.istole.it:80/announce
udp://tracker.openbittorrent.com:80/announce
udp://tracker.istole.it:6969/announce
http://tracker.istole.it/announce
http://tracker.trackerfix.com/announce
http://exodus.desync.com:6969/announce
http://tracker.thepiratebay.org/announce
udp://tracker-ccc.de:6969/announce
FILESIZE
RARBG.com.txt31 B
Sabotage.2014.720p.BRRiP.XViD.AC3-LEGi0N.avi3.44 GB
Sabotage.2014.720p.BRRiP.XViD.AC3-LEGi0N.sample.avi37.47 MB
sabotage.2014.720p.brrip.xvid.ac3-legi0n.nfo2.41 KB

Login

Account deleting

Are you sure you want to delete your account?

WARNING: This action cannot be undone!!!