Login / Register
1080p

Appleseed.Alpha.2014.1080p.BluRay.x264.DTS-RARBG

Category: Video
Type: Movies
Language: English
Subtitles: English, German, French, Arabic, Dutch, Spanish, Korean, Turkish
Movie Title: Appleseed Alpha
Detected quality: 1080p
Cast: David Matranga,Elizabeth Bunch,Wendel Calvert,Josh Sheltz,Luci Christian,Brina Palencia,Tesshô Genda,Junichi Suwabe,Hiroki Touchi,Hiroki Takahashi,Kaori Nazuka,Katsunosuke Hori,Aoi Yuki,Yuka Komatsu
Genre: Animation, Action, Sci-Fi
External Links: IMDB
Director: Shinji Aramaki
Producers: John Ledford,Joey Goubeaud,Daisuke Nagai,Eiichi Kamagata,Joseph Chou,Shigehito Kawada,Makiko Nagano,Max Nishi,Takashi Oya
Writers: Masamune Shirow,Marianne Krawczyk
Duration: 90
IMDB rating: 6.6 (3,561 votes)
Summary: Based on the comic book by the creator of Ghost in the Shell, a young female soldier Deunan and her cyborg partner Briareos survive through the post World War 3 apocalyptic New York in search of human's future hope, the legendary city of Olympus.
Votes
Good: 0
Bad: 0
GoodBad
0
Seeders
1
Leechers

Added: 2014-07-13

Size: 9.14 GB

Health: 25%

Hash (Base16): 5A61E201697E193A31F8AE27C5961AEA3927EEEF

Hash (Base32): LJQ6EALJPYMTUMPYVYT4LFQ25I4SP3XP

DownloadBookmark
^

Appleseed.Alpha.2014.1080p.BluRay.x264.DTS-RARBG

image

Title: Appleseed Alpha (2014)
Genres: Animation , Action
Actors: Luci Christian , David Matranga , Brina Palencia , Elizabeth Bunch , Wendel Calvert , Adam Gibbs , Chris Hutchinson , Josh Sheltz
Runtime: 90
Year: 2014
Plot:
Based on the comic book by the creator of Ghost in the Shell| a young female soldier Deunan and her cyborg partner Briareos survive through the post World War 3
apocalyptic New York in search of human's future hope| the legendary city of Olympus.


Appleseed.Alpha.2014.1080p.BluRay.x264.DTS-RARBG

http://www.imdb.com/title/tt3638012/

Screens:
image
image
image
image
image
image

Subtitles: English, French, Spanish, German, Dutch, Korean, Turkish, Arabic

Info:

[mediainfo]

Video
ID : 1
Format : AVC
Format/Info : Advanced Video Codec
Format profile : High@L4.1
Format settings, CABAC : Yes
Format settings, ReFrames : 4 frames
Codec ID : V_MPEG4/ISO/AVC
Duration : 1h 33mn
Bit rate : 12.5 Mbps
Width : 1 920 pixels
Height : 1 080 pixels
Display aspect ratio : 16:9
Frame rate mode : Constant
Frame rate : 23.976 fps
Color space : YUV
Chroma subsampling : 4:2:0
Bit depth : 8 bits
Scan type : Progressive
Bits/(Pixel*Frame) : 0.251
Stream size : 7.97 GiB (87%)
Title : Appleseed.Alpha.2014.1080p.BluRay.x264.DTS-RARBG
Writing library : x264 core 142 r2431 ac76440
Default : Yes
Forced : No
Color primaries : BT.709
Transfer characteristics : BT.709
Matrix coefficients : BT.709

Audio
ID : 11
Format : DTS
Format/Info : Digital Theater Systems
Mode : 16
Format settings, Endianness : Big
Codec ID : A_DTS
Duration : 1h 33mn
Bit rate mode : Constant
Bit rate : 1 509 Kbps
Channel(s) : 6 channels
Channel positions : Front: L C R, Side: L R, LFE
Sampling rate : 48.0 KHz
Bit depth : 24 bits
Compression mode : Lossy
Stream size : 1 008 MiB (11%)
Title : Appleseed.Alpha.2014.1080p.BluRay.x264.DTS-RARBG
Language : English
Default : Yes
Forced : No

Text #1
ID : 2
Format : PGS
Muxing mode : zlib
Codec ID : S_HDMV/PGS
Codec ID/Info : The same subtitle format used on BDs/HD-DVDs
Language : English
Default : No
Forced : No

Text #2
ID : 3
Format : PGS
Muxing mode : zlib
Codec ID : S_HDMV/PGS
Codec ID/Info : The same subtitle format used on BDs/HD-DVDs
Language : Arabic
Default : No
Forced : No

Text #3
ID : 4
Format : PGS
Muxing mode : zlib
Codec ID : S_HDMV/PGS
Codec ID/Info : The same subtitle format used on BDs/HD-DVDs
Language : Dutch
Default : No
Forced : No

Text #4
ID : 5
Format : PGS
Muxing mode : zlib
Codec ID : S_HDMV/PGS
Codec ID/Info : The same subtitle format used on BDs/HD-DVDs
Language : French
Default : No
Forced : No

Text #5
ID : 6
Format : PGS
Muxing mode : zlib
Codec ID : S_HDMV/PGS
Codec ID/Info : The same subtitle format used on BDs/HD-DVDs
Language : German
Default : No
Forced : No

Text #6
ID : 7
Format : PGS
Muxing mode : zlib
Codec ID : S_HDMV/PGS
Codec ID/Info : The same subtitle format used on BDs/HD-DVDs
Language : Korean
Default : No
Forced : No

Text #7
ID : 8
Format : PGS
Muxing mode : zlib
Codec ID : S_HDMV/PGS
Codec ID/Info : The same subtitle format used on BDs/HD-DVDs
Language : Spanish
Default : No
Forced : No

Text #8
ID : 9
Format : PGS
Muxing mode : zlib
Codec ID : S_HDMV/PGS
Codec ID/Info : The same subtitle format used on BDs/HD-DVDs
Language : Turkish
Default : No
Forced : No

Text #9
ID : 10
Format : PGS
Muxing mode : zlib
Codec ID : S_HDMV/PGS
Codec ID/Info : The same subtitle format used on BDs/HD-DVDs
Language : Dutch
Default : No
Forced : No

Menu
00:00:00.000 : :Chapter 1
00:05:09.935 : :Chapter 2
00:09:07.839 : :Chapter 3
00:14:45.968 : :Chapter 4
00:19:39.261 : :Chapter 5
00:29:15.629 : :Chapter 6
00:33:53.615 : :Chapter 7
00:38:17.462 : :Chapter 8
00:44:42.972 : :Chapter 9
00:51:24.123 : :Chapter 10
00:56:58.040 : :Chapter 11
01:02:53.478 : :Chapter 12
01:08:48.875 : :Chapter 13
01:13:17.435 : :Chapter 14
01:19:03.072 : :Chapter 15
01:24:49.167 : :Chapter 16



[/mediainfo]

Notes:
Greetz to everyone :)

TRACKERSEEDLEECHDOWNLOADED
udp://tracker.coppersurfer.tk:6969/announce010
http://mgtracker.org:2710/announce
udp://9.rarbg.me:2710/announce
udp://11.rarbg.me:80/announce
udp://10.rarbg.me:80/announce
udp://12.rarbg.me:80/announce
udp://9.rarbg.com:2710/announce
udp://open.demonii.com:1337/announce
udp://tracker.publicbt.com:80/announce
udp://tracker.istole.it:80/announce
udp://tracker.openbittorrent.com:80/announce
udp://tracker.istole.it:6969/announce
http://tracker.istole.it/announce
http://tracker.leechers-paradise.org:6969/announce
http://tracker.dler.org:6969/announce
http://bt.careland.com.cn:6969/announce
http://tracker.trackerfix.com/announce
udp://tracker.ccc.de:80/announce
http://tracker.thepiratebay.org/announce
http://shadowshq.eddie4.nl:6969/announce
http://shadowshq.yi.org:6969/announce
http://www.eddie4.nl:6969/announce
http://retracker.telecom.kz/announce
http://eddie4.nl:6969/announce
http://server1.9sheng.cn:6969/announce
http://bt2.careland.com.cn:6969/announce
http://bt3.careland.com.cn:6969/announce
http://tracker2.wasabii.com.tw:6969/announce
http://121.14.98.151:9090/announce
udp://tracker-ccc.de:6969/announce
FILESIZE
Appleseed.Alpha.2014.1080p.BluRay.x264.DTS-RARBG.mkv9.14 GB
RARBG.com.mp4992.93 KB
Appleseed.Alpha.2014.1080p.BluRay.x264.DTS-RARBG.nfo7.78 KB
RARBG.com.txt31 B

Related results

Date Title Size Files Seeds Leechs Category Health
Video(Anime) 20.67 GB 4 2014-07-12 1 0 25%
Video(Anime) 4.6 GB 4 2014-07-12 0 1 25%
Video(Anime) 10.6 GB 4 2014-07-12 0 1 25%
Video(Movies) 1.1 GB 4 2014-07-14 0 1 25%
Video(Movies) 1.78 GB 4 2014-07-14 1 0 25%
Video(Movies) 4.78 GB 5 2014-07-24 1 0 25%

Login

Account deleting

Are you sure you want to delete your account?

WARNING: This action cannot be undone!!!