Login / Register

Appleseed.Alpha.2014.720p.BRRip.XviD.AC3-RARBG

Category: Video
Type: Anime
Movie Title: Appleseed Alpha
Cast: David Matranga,Elizabeth Bunch,Wendel Calvert,Josh Sheltz,Luci Christian,Brina Palencia,Tesshô Genda,Junichi Suwabe,Hiroki Touchi,Hiroki Takahashi,Kaori Nazuka,Katsunosuke Hori,Aoi Yuki,Yuka Komatsu
Genre: Animation, Action, Sci-Fi
External Links: IMDB
Director: Shinji Aramaki
Producers: John Ledford,Joey Goubeaud,Daisuke Nagai,Eiichi Kamagata,Joseph Chou,Shigehito Kawada,Makiko Nagano,Max Nishi,Takashi Oya
Writers: Masamune Shirow,Marianne Krawczyk
Duration: 90
Summary: Based on the comic book by the creator of Ghost in the Shell, a young female soldier Deunan and her cyborg partner Briareos survive through the post World War 3 apocalyptic New York in search of human's future hope, the legendary city of Olympus.
Votes
Good: 0
Bad: 0
GoodBad
1
Seeders
0
Leechers

Added: 2014-07-13

Size: 2.89 GB

Health: 25%

Hash (Base16): 029188917B50E954765D48368F29A89A22BA5C09

Hash (Base32): AKIYREL3KDUVI5S5JA3I6KNITIRLUXAJ

DownloadBookmark
^

Appleseed.Alpha.2014.720p.BRRip.XviD.AC3-RARBG

image

Title: Appleseed Alpha (2014)
Genres: Animation , Action
Actors: Luci Christian , David Matranga , Brina Palencia , Elizabeth Bunch , Wendel Calvert , Adam Gibbs , Chris Hutchinson , Josh Sheltz
Runtime: 90
Year: 2014
Plot:
Based on the comic book by the creator of Ghost in the Shell| a young female soldier Deunan and her cyborg partner Briareos survive through the post World War 3
apocalyptic New York in search of human's future hope| the legendary city of Olympus.


Appleseed.Alpha.2014.720p.BRRip.XviD.AC3-RARBG

http://www.imdb.com/title/tt3638012/

Screens:
image
image
image
image
image
image

Info:

[mediainfo]

Format : AVI
Format/Info : Audio Video Interleave
Format profile : OpenDML
File size : 2.89 GiB
Duration : 1h 33mn
Overall bit rate : 4 430 Kbps
Movie name : RARBG.COM - Appleseed.Alpha.2014.720p.BRRip.XviD.AC3-RARBG
Writing library : VirtualDub build 35491/release
Comment : RARBG.COM - Appleseed.Alpha.2014.720p.BRRip.XviD.AC3-RARBG

Video
ID : 0
Format : MPEG-4 Visual
Format profile : Simple@L5
Format settings, BVOP : No
Format settings, QPel : No
Format settings, GMC : No warppoints
Format settings, Matrix : Default (H.263)
Codec ID : XVID
Codec ID/Hint : XviD
Duration : 1h 33mn
Bit rate : 3 779 Kbps
Width : 1 280 pixels
Height : 720 pixels
Display aspect ratio : 16:9
Frame rate : 23.976 fps
Color space : YUV
Chroma subsampling : 4:2:0
Bit depth : 8 bits
Scan type : Progressive
Compression mode : Lossy
Bits/(Pixel*Frame) : 0.171
Stream size : 2.46 GiB (85%)
Writing library : Lavc55.61.100

Audio
ID : 1
Format : AC-3
Format/Info : Audio Coding 3
Mode extension : CM (complete main)
Format settings, Endianness : Big
Codec ID : 2000
Duration : 1h 33mn
Bit rate mode : Constant
Bit rate : 640 Kbps
Channel(s) : 6 channels
Channel positions : Front: L C R, Side: L R, LFE
Sampling rate : 48.0 KHz
Bit depth : 16 bits
Compression mode : Lossy
Stream size : 427 MiB (14%)
Alignment : Aligned on interleaves
Interleave, duration : 42 ms (1.00 video frame)
Interleave, preload duration : 512 ms

[/mediainfo]

Notes:
Greetz to everyone :)

TRACKERSEEDLEECHDOWNLOADED
udp://9.rarbg.me:2710/announce
udp://11.rarbg.me:80/announce
udp://10.rarbg.me:80/announce
udp://12.rarbg.me:80/announce
udp://9.rarbg.com:2710/announce
udp://open.demonii.com:1337/announce
udp://tracker.publicbt.com:80/announce
udp://tracker.istole.it:80/announce
udp://tracker.openbittorrent.com:80/announce
udp://tracker.istole.it:6969/announce
http://tracker.istole.it/announce
http://tracker.trackerfix.com/announce
udp://tracker.ccc.de:80/announce
http://tracker.thepiratebay.org/announce
udp://tracker-ccc.de:6969/announce
FILESIZE
Appleseed.Alpha.2014.720p.BRRip.XviD.AC3-RARBG.avi2.89 GB
RARBG.com.avi1.14 MB
Appleseed.Alpha.2014.720p.BRRip.XviD.AC3-RARBG.nfo3.2 KB
RARBG.com.txt31 B

Related results

Date Title Size Files Seeds Leechs Category Health
Video(Anime) 891.81 MB 4 2014-07-12 0 2 25%
Video(Anime) 1.08 GB 4 2014-07-12 1 0 25%

Login

Account deleting

Are you sure you want to delete your account?

WARNING: This action cannot be undone!!!