Login / Register

Under.the.Dome.S02E03.HDTV.x264-LOL[rartv]

Category: Video
Type: TV
Movie Title: Under the Dome
Season: 2
Episode: 3
Episode Title: Force Majeure
Release date: 2014-07-13
Cast: David Schifter,Colin Ford,Aisha Hinds,Michael Rosander,Rachelle Lefevre,Natalie Martinez,Dean Norris,Jolene Purdy,Britt Robertson,Nicholas Strong,Mackenzie Lintz,Ned Bellamy,Dale Raoul,R. Keith Harris,Kevin Sizemore,James Alcorn,Linds Edwards,Jeff Fahey
Genre: Drama, Mystery, Thriller
External Links: IMDB
Directors: Peter Weller,Eriq La Salle,David Barrett,David Barrett,Jack Bender,Holly Dale,Roxann Dawson,Ernest R. Dickerson,Paul A. Edwards,Edward Ornelas,Niels Arden Oplev,Miguel Sapochnik,Sergio Mimica-Gezzan,Kari Skogland,Peter Leto
Producers: Stephen King,Steven Spielberg,Neal Baer,Jack Bender,Rick Cleveland,Niels Arden Oplev,Justin Falvey,Darryl Frank,Richard Peter Schroer,Randy Sutter,Daniel Truly,Peter Leto,Agatha Warren,Brian Wayne Peterson,Cathryn Humphris,Kelly Souders,Stacey Snider
Writers: Stephen King,Rick Cleveland,William Kendall,Daniel Truly,Brian Wayne Peterson,Cathryn Humphris,Kelly Souders,Mark Bruner,Alexandra McNally,Brian K. Vaughan,Soo Hugh,Adam Stein,Peter Calloway,Caitlin Parrish,Andres Fischer-Centeno,Scott Gold
Duration: 43
Original run: 2013-06-23
IMDB rating: 7.1 (58,603 votes)
Summary: An invisible and mysterious force field descends upon a small fictional town in the United States, trapping residents inside, cut off from the rest of civilization. The trapped townsfolk must discover the secrets and purpose of the "dome" and its origins, while coming to learn more than they ever knew about each other.
Votes
Good: 0
Bad: 0
GoodBad
0
Seeders
1
Leechers

Added: 2014-07-15

Size: 273.13 MB

Health: 25%

Hash (Base16): 8EE5EC836B9A52CFFBCAAA92117E1615504A4FDB

Hash (Base32): R3S6ZA3LTJJM766KVKJBC7QWCVIEUT63

DownloadBookmark
^

Under.the.Dome.S02E03.HDTV.x264-LOL[rartv]

image
[mediainfo]

Video
ID : 1
Format : AVC
Format/Info : Advanced Video Codec
Format profile : High@L3.1
Format settings, CABAC : Yes
Format settings, ReFrames : 5 frames
Codec ID : avc1
Codec ID/Info : Advanced Video Coding
Duration : 40mn 46s
Source duration : 40mn 46s
Bit rate : 769 Kbps
Maximum bit rate : 6 597 Kbps
Width : 720 pixels
Height : 404 pixels
Display aspect ratio : 16:9
Frame rate mode : Constant
Frame rate : 23.976 fps
Color space : YUV
Chroma subsampling : 4:2:0
Bit depth : 8 bits
Scan type : Progressive
Bits/(Pixel*Frame) : 0.110
Stream size : 224 MiB (82%)
Source stream size : 237 MiB (87%)
Writing library : x264 core 142 r2431 ac76440
Encoding settings : cabac=1 / ref=5 / deblock=1:1:1 / analyse=0x3:0x133 / me=umh / subme=9 / psy=1 / psy_rd=1.00:0.00 / mixed_ref=1 / me_range=16 / chroma_me=1 / trellis=2 / 8x8dct=1 / cqm=0 / deadzone=21,11 / fast_pskip=0 / chroma_qp_offset=-2 / threads=16 / lookahead_threads=1 / sliced_threads=0 / nr=0 / decimate=1 / interlaced=0 / bluray_compat=0 / constrained_intra=0 / bframes=3 / b_pyramid=2 / b_adapt=2 / b_bias=0 / direct=3 / weightb=1 / open_gop=0 / weightp=2 / keyint=250 / keyint_min=23 / scenecut=40 / intra_refresh=0 / rc_lookahead=60 / rc=crf / mbtree=1 / crf=19.0 / qcomp=0.60 / qpmin=0 / qpmax=69 / qpstep=4 / ip_ratio=1.40 / aq=1:1.00
Encoded date : UTC 2014-07-14 15:54:54
Tagged date : UTC 2014-07-14 16:40:33
Matrix coefficients : BT.709

Audio
ID : 2
Format : AAC
Format/Info : Advanced Audio Codec
Format profile : LC
Codec ID : 40
Duration : 40mn 46s
Bit rate mode : Variable
Bit rate : 121 Kbps
Maximum bit rate : 155 Kbps
Channel(s) : 2 channels
Channel positions : Front: L R
Sampling rate : 48.0 KHz
Compression mode : Lossy
Stream size : 35.3 MiB (13%)
Encoded date : UTC 2014-07-14 16:40:33
Tagged date : UTC 2014-07-14 16:40:33

[/mediainfo]

TRACKERSEEDLEECHDOWNLOADED
http://mgtracker.org:2710/announce
udp://9.rarbg.me:2710/announce
udp://11.rarbg.me:80/announce
udp://10.rarbg.me:80/announce
udp://12.rarbg.me:80/announce
udp://9.rarbg.com:2710/announce
udp://open.demonii.com:1337/announce
udp://tracker.publicbt.com:80/announce
udp://tracker.istole.it:80/announce
udp://tracker.openbittorrent.com:80/announce
udp://tracker.istole.it:6969/announce
http://tracker.trackerfix.com/announce
udp://tracker.ccc.de:80/announce
http://tracker.thepiratebay.org/announce
udp://tracker-ccc.de:6969/announce
FILESIZE
RARBG.com.txt31 B
under.the.dome.203.hdtv-lol.mp4273.13 MB
under.the.dome.203.hdtv-lol.nfo4.26 KB

Related results

Date Title Size Files Seeds Leechs Category Health
Video(TV) 376.39 MB 3 2014-06-30 0 1 25%
Video(TV) 1.01 GB 4 2014-07-21 0 1 25%
Video(TV) 1015.25 MB 3 2014-07-28 0 1 25%
Video(TV) 268.31 MB 3 2014-08-25 1 0 25%

Login

Account deleting

Are you sure you want to delete your account?

WARNING: This action cannot be undone!!!