Login / Register

24.S09E12.720p.HDTV.X264-DIMENSION[rartv]

Category: Video
Type: TV
Movie Title: 24: Live Another Day
Season: 9
Episode: 12
Cast: Gbenga Akinnagbe,Benjamin Bratt,William Devane,Tate Donovan,Michelle Fairley,Giles Matthey,Mary Lynn Rajskub,Kim Raver,Yvonne Strahovski,Michael Wincott,Branko Tomovic,Adam Sinclair,Jonah Russell,Miranda Raison,Emily Berrington,Ross McCall,Duncan Pow
Genre: Action, Drama, Mystery
External Links: IMDB
Directors: Jon Cassar,Milan Cheylov,Milan Cheylov,Adam Kane,Omar Madha
Producers: Kiefer Sutherland,Brian Grazer,Tony Basgallop,Jon Cassar,Robert Cochran,Manny Coto,David Fury,Iain Smith,Howard Gordon,Evan Katz,Ashley Contino,Sang Kyu Kim
Writers: Tony Basgallop,Robert Cochran,Manny Coto,David Fury,Joel Surnow,Evan Katz,Patrick Harbinson,Adam DaSilva,Sang Kyu Kim
Duration: 89
Original run: 2012-09-22
Summary: Jack Bauer comes out of hiding in London to head off a massive terrorist attack while being hunted down by American forces dispatched by President James Heller.
Votes
Good: 0
Bad: 0
GoodBad
1
Seeders
0
Leechers

Added: 2014-07-15

Size: 1.08 GB

Health: 25%

Hash (Base16): 92003EE9E00218C6A57A54CCB53DEDC24BF4B58B

Hash (Base32): SIAD52PAAIMMNJL2KTGLKPPNYJF7JNML

DownloadBookmark
^

24.S09E12.720p.HDTV.X264-DIMENSION[rartv]

image
[mediainfo]

Video
ID : 1
Format : AVC
Format/Info : Advanced Video Codec
Format profile : High@L4.1
Format settings, CABAC : Yes
Format settings, ReFrames : 9 frames
Codec ID : V_MPEG4/ISO/AVC
Duration : 43mn 57s
Bit rate : 3 005 Kbps
Width : 1 280 pixels
Height : 720 pixels
Display aspect ratio : 16:9
Frame rate mode : Constant
Frame rate : 23.976 fps
Color space : YUV
Chroma subsampling : 4:2:0
Bit depth : 8 bits
Scan type : Progressive
Bits/(Pixel*Frame) : 0.136
Stream size : 945 MiB (85%)
Writing library : x264 core 142 r2431 ac76440
Encoding settings : cabac=1 / ref=9 / deblock=1:-1:-1 / analyse=0x3:0x133 / me=umh / subme=10 / psy=1 / psy_rd=1.00:0.00 / mixed_ref=1 / me_range=32 / chroma_me=1 / trellis=2 / 8x8dct=1 / cqm=0 / deadzone=21,11 / fast_pskip=0 / chroma_qp_offset=-2 / threads=16 / lookahead_threads=1 / sliced_threads=0 / nr=0 / decimate=1 / interlaced=0 / bluray_compat=0 / constrained_intra=0 / bframes=5 / b_pyramid=2 / b_adapt=2 / b_bias=0 / direct=3 / weightb=1 / open_gop=0 / weightp=2 / keyint=250 / keyint_min=23 / scenecut=40 / intra_refresh=0 / rc_lookahead=60 / rc=crf / mbtree=1 / crf=18.0 / qcomp=0.60 / qpmin=0 / qpmax=69 / qpstep=4 / ip_ratio=1.40 / aq=1:1.00
Language : English
Default : Yes
Forced : No
Matrix coefficients : BT.709

Audio
ID : 2
Format : AC-3
Format/Info : Audio Coding 3
Mode extension : CM (complete main)
Format settings, Endianness : Big
Codec ID : A_AC3
Duration : 43mn 56s
Bit rate mode : Constant
Bit rate : 448 Kbps
Channel(s) : 6 channels
Channel positions : Front: L C R, Side: L R, LFE
Sampling rate : 48.0 KHz
Bit depth : 16 bits
Compression mode : Lossy
Stream size : 141 MiB (13%)
Default : Yes
Forced : No

[/mediainfo]

TRACKERSEEDLEECHDOWNLOADED
http://mgtracker.org:2710/announce
udp://9.rarbg.me:2710/announce
udp://11.rarbg.me:80/announce
udp://10.rarbg.me:80/announce
udp://12.rarbg.me:80/announce
udp://9.rarbg.com:2710/announce
udp://open.demonii.com:1337/announce
udp://tracker.publicbt.com:80/announce
udp://tracker.istole.it:80/announce
udp://tracker.openbittorrent.com:80/announce
udp://tracker.istole.it:6969/announce
http://tracker.trackerfix.com/announce
http://9.rarbg.com:2710/announce
udp://tracker.ccc.de:80/announce
http://tracker.thepiratebay.org/announce
http://shadowshq.yi.org:6969/announce
http://www.eddie4.nl:6969/announce
http://eddie4.nl:6969/announce
http://retracker.uln-ix.ru/announce
http://bt3.careland.com.cn:6969/announce
http://retracker.perm.ertelecom.ru/announce
http://server2.9sheng.cn:6969/announce
http://121.14.98.151:9090/announce
udp://tracker-ccc.de:6969/announce
FILESIZE
24.S09E12.720p.HDTV.X264-DIMENSION.mkv1.08 GB
RARBG.com.txt31 B
renewal.announce.at.comic.con.later.this.month.912.720p-dimension.nfo594 B

Related results

Date Title Size Files Seeds Leechs Category Health
Video(TV) 934.48 MB 3 2014-07-14 0 1 25%
Video(TV) 1.12 GB 3 2014-07-13 0 1 25%
Video(TV) 1.1 GB 3 2014-07-06 0 1 25%
Video(TV) 927.91 MB 4 2014-05-11 0 3 25%
Video(TV) 1.31 GB 4 2014-07-20 1 0 25%
Video(TV) 838.23 MB 4 2014-11-11 0 1 25%
Video(TV) 676.39 MB 4 2014-11-19 1 0 25%
Video(TV) 688.88 MB 4 2014-11-20 2 0 100%
Video(TV) 921.1 MB 5 2014-11-30 0 1 25%
Video(TV) 999.53 MB 4 2014-12-01 0 1 25%

Login

Account deleting

Are you sure you want to delete your account?

WARNING: This action cannot be undone!!!