Login / Register

Duck.Dynasty.S06E02.Quack.and.Gown.720p.HDTV.x264-DHD[rartv]

Category: Video
Type: TV
Movie Title: Duck Dynasty
Season: 6
Episode: 2
Cast: River Robertson
Genre: Reality-TV
External Links: IMDB
Directors: Hisham Abed,Hugh Peterson,Jonathan Haug,Ryan Powers,Colin Hargraves,David Hobbes,Deirdre Gurney,Jonathan Haug,David Hobbes,Mike Odair,Mike Odair
Producers: Elaine Frontain Bryant,David McKillop,Justin Tucker,Scott Gurney,Laurie Sharpe,Joshua Harris,Ann C. Salzer,Nathan Oliver,Ryan Smith,Joshua Silberman,Archie Gips,Adam Saltzberg,Scott Teti,Peter Woronov,Hugh Peterson,Kevin Finn,Paul Matusheski
Writer: Luke Moran
Duration: 60
IMDB rating: 7.0/10
Summary: Follows a wealthy Louisiana family known for their successful duck-hunting business.
Votes
Good: 0
Bad: 0
GoodBad
0
Seeders
1
Leechers

Added: 2014-06-19

Size: 453.98 MB

Health: 25%

Hash (Base16): F71798DC20010E209FC37391243B35AF38C09943

Hash (Base32): 64LZRXBAAEHCBH6DOOISIOZVV44MBGKD

DownloadBookmark
^

Screenshots:


Duck.Dynasty.S06E02.Quack.and.Gown.720p.HDTV.x264-DHD

LANGUAGE.....: English
DURATION.....: 00:21:23.328
SIZE.........: 453MB
RESOLUTION...: 1280x720
VIDEO CODEC..: x264
FRAMERATE....: 23.976 fps
VIDEO BITRATE: 2524 Kbps
AUDIO CODEC..: CBR AC3
AUDIO BITRATE: 384 Kbps
DATE.........: 18 06 2014
CRF SETTING..: 21

SUMMARY......:

RELEASE NOTES:



[mediainfo]
Video
ID                                       : 1
Format                                   : AVC
Format/Info                              : Advanced Video Codec
Format profile                           : [email protected]
Format settings, CABAC                   : Yes
Format settings, ReFrames                : 5 frames
Codec ID                                 : V_MPEG4/ISO/AVC
Duration                                 : 21mn 23s
Bit rate                                 : 2 524 Kbps
Width                                    : 1 280 pixels
Height                                   : 720 pixels
Display aspect ratio                     : 16:9
Frame rate mode                          : Constant
Frame rate                               : 23.976 fps
Color space                              : YUV
Chroma subsampling                       : 4:2:0
Bit depth                                : 8 bits
Scan type                                : Progressive
Bits/(Pixel*Frame)                       : 0.114
Stream size                              : 386 MiB (85%)
Writing library                          : x264 core 142 r2431 ac76440
Encoding settings                        : cabac=1 / ref=5 / deblock=1:0:0 / analyse=0x3:0x113 / me=umh / subme=8 / psy=1 / psy_rd=1.00:0.00 / mixed_ref=1 / me_range=16 / chroma_me=1 / trellis=1 / 8x8dct=1 / cqm=0 / deadzone=21,11 / fast_pskip=1 / chroma_qp_offset=-2 / threads=12 / lookahead_threads=2 / sliced_threads=0 / nr=0 / decimate=1 / interlaced=0 / bluray_compat=0 / constrained_intra=0 / bframes=3 / b_pyramid=2 / b_adapt=2 / b_bias=0 / direct=3 / weightb=1 / open_gop=0 / weightp=2 / keyint=250 / keyint_min=23 / scenecut=40 / intra_refresh=0 / rc_lookahead=50 / rc=crf / mbtree=1 / crf=21.0 / qcomp=0.60 / qpmin=0 / qpmax=69 / qpstep=4 / ip_ratio=1.40 / aq=1:1.00
Default                                  : Yes
Forced                                   : No
Matrix coefficients                      : BT.709

Audio
ID                                       : 2
Format                                   : AC-3
Format/Info                              : Audio Coding 3
Mode extension                           : CM (complete main)
Format settings, Endianness              : Big
Codec ID                                 : A_AC3
Duration                                 : 21mn 23s
Bit rate mode                            : Constant
Bit rate                                 : 384 Kbps
Channel(s)                               : 6 channels
Channel positions                        : Front: L C R, Side: L R, LFE
Sampling rate                            : 48.0 KHz
Bit depth                                : 16 bits
Compression mode                         : Lossy
Stream size                              : 58.7 MiB (13%)
Default                                  : Yes
Forced                                   : No


[/mediainfo]

TRACKERSEEDLEECHDOWNLOADED
udp://9.rarbg.me:2710/announce
udp://11.rarbg.me:80/announce
udp://10.rarbg.me:80/announce
udp://12.rarbg.me:80/announce
udp://9.rarbg.com:2710/announce
udp://open.demonii.com:1337/announce
udp://tracker.publicbt.com:80/announce
udp://tracker.istole.it:80/announce
udp://tracker.openbittorrent.com:80/announce
udp://tracker.istole.it:6969/announce
http://tracker.istole.it/announce
http://tracker.trackerfix.com/announce
udp://tracker.ccc.de:80/announce
http://tracker.thepiratebay.org/announce
http://server2.9sheng.cn:6969/announce
udp://tracker-ccc.de:6969/announce
FILESIZE
Duck.Dynasty.S06E02.Quack.and.Gown.720p.HDTV.x264-DHD.mkv453.98 MB
RARBG.com.txt31 B
duck.dynasty.s06e02.720p-dhd.nfo482 B

Login

Account deleting

Are you sure you want to delete your account?

WARNING: This action cannot be undone!!!