Login / Register

Teen.Wolf.S04E04.720p.HDTV.x264-IMMERSE[rartv]

Category: Video
Type: TV
Movie Title: Teen Wolf
Season: 4
Episode: 4
Episode Title: The Benefactor
Release date: 2014-07-13
Cast: Linden Ashby,Ian Bohen,JR Bourne,Tyler Posey,Dylan O'Brien,Tyler Hoechlin,Doug Cox,Keahu Kahuanui,Orny Adams,Adam Fristoe,Eaddy Mays,Hillary Brant,Ian C. King,Seth Gilliam,Susan Walters,Scottie Knollin,Carey Jones,Robert Pralgo,Albert Valladares
Genre: Comedy, Drama, Horror
External Links: IMDB
Directors: Tim Andrew,David Daniel,Robert Hall,Christian Taylor,Jennifer Chambers Lynch,Russell Mulcahy,James J.D. Taylor,David Daniel,Toby Wilkins,Jann Turner,Robert Hall
Producers: Tevin Adelman,Tim Andrew,Alan Bloom,Sam Childs,René Echevarria,Christian Taylor,Russell Mulcahy,Jeff Vlaming,Alan J. Bloom,Eric Wallace,Todd Roeland,Joseph P. Genier,Blaine Williams,Karen Gorodetzky,Matthew S. Partney,Monica Macer,Corey Evett
Writers: Alyssa Clark,Moira McMahon,Christian Taylor,Jeph Loeb,Matthew Weisman,Jeff Vlaming,Eric Wallace,Lucas Sussman,Jesec Griffin,Jonathon Roessler,Monica Macer,Jeff Davis,Daniel Sinclair,Ned Vizzini,Luke Passmore,Andy Cochran,Angela Harvey,Ian Stokes
Duration: 41
Original run: 2011-06-04
IMDB rating: 7.8 (58,628 votes)
Summary: A somewhat awkward teen is attacked by a werewolf and inherits the curse itself, as well as the enemies that come with it.
Votes
Good: 0
Bad: 0
GoodBad
1
Seeders
0
Leechers

Added: 2014-07-15

Size: 924.25 MB

Health: 25%

Hash (Base16): F9E263242FFA80B1F10D44C383A10B5F1EA3C352

Hash (Base32): 7HRGGJBP7KALD4INITBYHIILL4PKHQ2S

DownloadBookmark
^

Teen.Wolf.S04E04.720p.HDTV.x264-IMMERSE[rartv]

image
[mediainfo]

Video
ID : 1
Format : AVC
Format/Info : Advanced Video Codec
Format profile : High@L4.1
Format settings, CABAC : Yes
Format settings, ReFrames : 5 frames
Codec ID : V_MPEG4/ISO/AVC
Duration : 41mn 1s
Bit rate : 2 704 Kbps
Width : 1 280 pixels
Height : 720 pixels
Display aspect ratio : 16:9
Frame rate mode : Constant
Frame rate : 23.976 fps
Color space : YUV
Chroma subsampling : 4:2:0
Bit depth : 8 bits
Scan type : Progressive
Bits/(Pixel*Frame) : 0.122
Stream size : 793 MiB (86%)
Writing library : x264 core 142 r2431 ac76440
Encoding settings : cabac=1 / ref=5 / deblock=1:-2:-2 / analyse=0x3:0x113 / me=umh / subme=8 / psy=1 / psy_rd=1.05:0.00 / mixed_ref=1 / me_range=16 / chroma_me=1 / trellis=1 / 8x8dct=1 / cqm=0 / deadzone=21,11 / fast_pskip=1 / chroma_qp_offset=-2 / threads=18 / lookahead_threads=3 / sliced_threads=0 / nr=0 / decimate=1 / interlaced=0 / bluray_compat=0 / constrained_intra=0 / bframes=3 / b_pyramid=2 / b_adapt=2 / b_bias=0 / direct=3 / weightb=1 / open_gop=0 / weightp=2 / keyint=250 / keyint_min=23 / scenecut=40 / intra_refresh=0 / rc_lookahead=50 / rc=crf / mbtree=1 / crf=18.0 / qcomp=0.60 / qpmin=0 / qpmax=69 / qpstep=4 / ip_ratio=1.40 / aq=1:1.10
Language : English
Default : Yes
Forced : No

Audio
ID : 2
Format : AC-3
Format/Info : Audio Coding 3
Mode extension : CM (complete main)
Format settings, Endianness : Big
Codec ID : A_AC3
Duration : 41mn 1s
Bit rate mode : Constant
Bit rate : 384 Kbps
Channel(s) : 6 channels
Channel(s)_Original : 2 channels
Channel positions : Front: L R
Sampling rate : 48.0 KHz
Bit depth : 16 bits
Compression mode : Lossy
Stream size : 113 MiB (12%)
Language : English
Default : Yes
Forced : No

[/mediainfo]

TRACKERSEEDLEECHDOWNLOADED
udp://9.rarbg.me:2710/announce
udp://11.rarbg.me:80/announce
udp://10.rarbg.me:80/announce
udp://12.rarbg.me:80/announce
udp://9.rarbg.com:2710/announce
udp://open.demonii.com:1337/announce
udp://tracker.publicbt.com:80/announce
udp://tracker.istole.it:80/announce
udp://tracker.openbittorrent.com:80/announce
udp://tracker.istole.it:6969/announce
http://tracker.torrenty.org:6969/announce
http://tracker.trackerfix.com/announce
udp://tracker.ccc.de:80/announce
http://tracker.thepiratebay.org/announce
http://www.eddie4.nl:6969/announce
http://retracker.telecom.kz/announce
http://bt3.careland.com.cn:6969/announce
udp://tracker-ccc.de:6969/announce
FILESIZE
RARBG.com.txt31 B
Teen.Wolf.S04E04.720p.HDTV.x264-IMMERSE.mkv924.25 MB
teen.wolf.s04e04.720p.hdtv.x264-immerse.nfo2.88 KB

Related results

Date Title Size Files Seeds Leechs Category Health
Video(TV) 1013.76 MB 3 2014-07-07 1 1 25%
Video(TV) 1.35 GB 4 2014-07-13 2 0 100%
Video(TV) 1.32 GB 4 2014-07-13 1 0 25%
Video(TV) 1.36 GB 4 2013-08-15 1 0 25%
Video(TV) 1 GB 3 2014-07-20 0 1 25%
Video(TV) 1.24 GB 4 2014-07-20 0 1 25%
Video(TV) 1.37 GB 3 2014-07-24 0 1 25%
Video(TV) 1.05 GB 4 2014-07-24 1 0 25%
Video(TV) 1.49 GB 3 2014-08-17 1 0 25%
Video(TV) 1.24 GB 3 2014-12-04 2 1 100%

Login

Account deleting

Are you sure you want to delete your account?

WARNING: This action cannot be undone!!!