Login / Register

Bad.Teacher.S01E08.HDTV.x264-ASAP[rartv]

Category: Video
Type: TV
Movie Title: Bad Teacher
Season: 1
Episode: 8
Episode Title: Nix the Fat Week
Release date: 2014-07-11
Cast: Aedin Mincks,Kristin Davis,Tara-Nicole Azarian,Ryan Hansen,Ashley Danielle Fareas,Steven Weber,David Alan Grier,Caroline Aaron,Lauren Tom,Tim Bagley,Colin Hanks,Sara Gilbert,Maile Flanagan,Richard Kind,Andrew Daly,Mark Cuban,Ari Graynor,Lilli Birdsell
Genre: Comedy
External Links: IMDB
Directors: Fred Savage,Jay Chandrasekhar,Adam Davidson,Bryan Gordon,Matt Sohn,Don Scardino,Eyal Gordin,Linda Mendoza,Victor Nelli Jr.,Peter Lauer,Eric Appel,Fred Goss
Producers: Cameron Diaz,Michael Pendell,Brian George,Jamie Rhonheimer,Greg Malins,Robia Rashid,Ari Graynor,Matthew Libman,Erica Rivinoja,Tim McAuliffe,Rebecca Moline,Michael Lasker,Lee Eisenberg,Jake Aust,Jimmy Miller,Sam Hansen,Gene Stupnitsky,Daniel Libman
Writers: Ben Dougan,Jamie Rhonheimer,Matthew Libman,Matthew Flanagan,David McHugh,Seth Cohen,Erica Rivinoja,Tim McAuliffe,Lee Eisenberg,Gene Stupnitsky,Daniel Libman,Hilary Winston,Amy Pocha,Mathew Harawitz,Billy Finnegan
Duration: 30
Original run: 2014-04-23
IMDB rating: 5.1/10
Summary: Centers on a sexy, foul-mouthed divorcée who becomes a teacher to find her next husband.
Votes
Good: 0
Bad: 0
GoodBad
0
Seeders
1
Leechers

Added: 2014-07-13

Size: 192.8 MB

Health: 25%

Hash (Base16): E302CBE747EE39968CCB0DB28EA1E868525E1A7F

Hash (Base32): 4MBMXZ2H5Y4ZNDGLBWZI5IPINBJF4GT7

DownloadBookmark
^

Bad.Teacher.S01E08.HDTV.x264-ASAP[rartv]

image
[mediainfo]

Video
ID : 1
Format : AVC
Format/Info : Advanced Video Codec
Format profile : High@L3.1
Format settings, CABAC : Yes
Format settings, ReFrames : 5 frames
Codec ID : avc1
Codec ID/Info : Advanced Video Coding
Duration : 21mn 25s
Bit rate : 1 120 Kbps
Width : 720 pixels
Height : 404 pixels
Display aspect ratio : 16:9
Frame rate mode : Constant
Frame rate : 23.976 fps
Color space : YUV
Chroma subsampling : 4:2:0
Bit depth : 8 bits
Scan type : Progressive
Bits/(Pixel*Frame) : 0.161
Stream size : 172 MiB (89%)
Writing library : x264 core 142 r2431 ac76440
Encoding settings : cabac=1 / ref=5 / deblock=1:0:0 / analyse=0x3:0x113 / me=umh / subme=8 / psy=1 / psy_rd=1.00:0.00 / mixed_ref=1 / me_range=16 / chroma_me=1 / trellis=1 / 8x8dct=1 / cqm=0 / deadzone=21,11 / fast_pskip=1 / chroma_qp_offset=-2 / threads=18 / lookahead_threads=3 / sliced_threads=0 / nr=0 / decimate=1 / interlaced=0 / bluray_compat=0 / constrained_intra=0 / bframes=3 / b_pyramid=2 / b_adapt=2 / b_bias=0 / direct=3 / weightb=1 / open_gop=0 / weightp=2 / keyint=250 / keyint_min=23 / scenecut=40 / intra_refresh=0 / rc_lookahead=50 / rc=crf / mbtree=1 / crf=19.0 / qcomp=0.60 / qpmin=0 / qpmax=69 / qpstep=4 / ip_ratio=1.40 / aq=1:1.00
Encoded date : UTC 2011-09-08 11:43:25
Tagged date : UTC 2011-09-08 11:43:25
Matrix coefficients : BT.709

Audio
ID : 2
Format : AAC
Format/Info : Advanced Audio Codec
Format profile : LC
Codec ID : 40
Duration : 21mn 25s
Bit rate mode : Variable
Bit rate : 132 Kbps
Maximum bit rate : 222 Kbps
Channel(s) : 2 channels
Channel positions : Front: L R
Sampling rate : 48.0 KHz
Compression mode : Lossy
Stream size : 20.2 MiB (10%)
Encoded date : UTC 2011-09-08 11:43:25
Tagged date : UTC 2011-09-08 11:43:25

[/mediainfo]

TRACKERSEEDLEECHDOWNLOADED
udp://9.rarbg.me:2710/announce
udp://11.rarbg.me:80/announce
udp://10.rarbg.me:80/announce
udp://12.rarbg.me:80/announce
udp://9.rarbg.com:2710/announce
udp://open.demonii.com:1337/announce
udp://tracker.publicbt.com:80/announce
udp://tracker.istole.it:80/announce
udp://tracker.openbittorrent.com:80/announce
udp://tracker.istole.it:6969/announce
http://tracker.istole.it/announce
http://tracker.trackerfix.com/announce
udp://tracker.ccc.de:80/announce
http://tracker.thepiratebay.org/announce
udp://tracker-ccc.de:6969/announce
FILESIZE
Bad.Teacher.S01E08.HDTV.x264-ASAP.mp4192.79 MB
RARBG.com.txt31 B
bad.teacher.s01e08.hdtv.x264-asap.nfo4.69 KB

Related results

Date Title Size Files Seeds Leechs Category Health
Video(TV) 723.65 MB 2 2014-07-03 0 1 25%
Video(TV) 483.27 MB 3 2014-07-19 1 0 25%
Video(TV) 913.21 MB 3 2014-11-18 0 1 25%

Login

Account deleting

Are you sure you want to delete your account?

WARNING: This action cannot be undone!!!