Login / Register

Bad.Teacher.S01E08.720p.HDTV.x264-IMMERSE[rartv]

Category: Video
Type: TV
Movie Title: Bad Teacher
Season: 1
Episode: 8
Episode Title: Nix the Fat Week
Release date: 2014-07-11
Cast: Aedin Mincks,Kristin Davis,Tara-Nicole Azarian,Ryan Hansen,Ashley Danielle Fareas,Steven Weber,David Alan Grier,Caroline Aaron,Lauren Tom,Tim Bagley,Colin Hanks,Sara Gilbert,Maile Flanagan,Richard Kind,Andrew Daly,Mark Cuban,Ari Graynor,Lilli Birdsell
Genre: Comedy
External Links: IMDB
Directors: Fred Savage,Jay Chandrasekhar,Adam Davidson,Bryan Gordon,Matt Sohn,Don Scardino,Eyal Gordin,Linda Mendoza,Victor Nelli Jr.,Peter Lauer,Eric Appel,Fred Goss
Producers: Cameron Diaz,Michael Pendell,Brian George,Jamie Rhonheimer,Greg Malins,Robia Rashid,Ari Graynor,Matthew Libman,Erica Rivinoja,Tim McAuliffe,Rebecca Moline,Michael Lasker,Lee Eisenberg,Jake Aust,Jimmy Miller,Sam Hansen,Gene Stupnitsky,Daniel Libman
Writers: Ben Dougan,Jamie Rhonheimer,Matthew Libman,Matthew Flanagan,David McHugh,Seth Cohen,Erica Rivinoja,Tim McAuliffe,Lee Eisenberg,Gene Stupnitsky,Daniel Libman,Hilary Winston,Amy Pocha,Mathew Harawitz,Billy Finnegan
Duration: 30
Original run: 2014-04-23
Summary: Centers on a sexy, foul-mouthed divorcée who becomes a teacher to find her next husband.
Votes
Good: 0
Bad: 0
GoodBad
0
Seeders
1
Leechers

Added: 2014-07-13

Size: 631.4 MB

Health: 25%

Hash (Base16): BAA80A59410CA513FD4A826955C9133EFFBEA2C8

Hash (Base32): XKUAUWKBBSSRH7KKQJUVLSITH3735IWI

DownloadBookmark
^

Bad.Teacher.S01E08.720p.HDTV.x264-IMMERSE[rartv]

image
[mediainfo]

Video
ID : 1
Format : AVC
Format/Info : Advanced Video Codec
Format profile : High@L4.1
Format settings, CABAC : Yes
Format settings, ReFrames : 5 frames
Codec ID : V_MPEG4/ISO/AVC
Duration : 21mn 25s
Bit rate : 3 654 Kbps
Width : 1 280 pixels
Height : 720 pixels
Display aspect ratio : 16:9
Frame rate mode : Constant
Frame rate : 23.976 fps
Color space : YUV
Chroma subsampling : 4:2:0
Bit depth : 8 bits
Scan type : Progressive
Bits/(Pixel*Frame) : 0.165
Stream size : 560 MiB (89%)
Writing library : x264 core 142 r2431 ac76440
Encoding settings : cabac=1 / ref=5 / deblock=1:-2:-2 / analyse=0x3:0x113 / me=umh / subme=8 / psy=1 / psy_rd=1.05:0.00 / mixed_ref=1 / me_range=16 / chroma_me=1 / trellis=1 / 8x8dct=1 / cqm=0 / deadzone=21,11 / fast_pskip=1 / chroma_qp_offset=-2 / threads=18 / lookahead_threads=3 / sliced_threads=0 / nr=0 / decimate=1 / interlaced=0 / bluray_compat=0 / constrained_intra=0 / bframes=3 / b_pyramid=2 / b_adapt=2 / b_bias=0 / direct=3 / weightb=1 / open_gop=0 / weightp=2 / keyint=250 / keyint_min=23 / scenecut=40 / intra_refresh=0 / rc_lookahead=50 / rc=crf / mbtree=1 / crf=18.0 / qcomp=0.60 / qpmin=0 / qpmax=69 / qpstep=4 / ip_ratio=1.40 / aq=1:1.10
Language : English
Default : Yes
Forced : No

Audio
ID : 2
Format : AC-3
Format/Info : Audio Coding 3
Mode extension : CM (complete main)
Format settings, Endianness : Big
Codec ID : A_AC3
Duration : 21mn 25s
Bit rate mode : Constant
Bit rate : 384 Kbps
Channel(s) : 6 channels
Channel positions : Front: L C R, Side: L R, LFE
Sampling rate : 48.0 KHz
Bit depth : 16 bits
Compression mode : Lossy
Stream size : 58.8 MiB (9%)
Language : English
Default : Yes
Forced : No

[/mediainfo]

TRACKERSEEDLEECHDOWNLOADED
udp://9.rarbg.me:2710/announce
udp://11.rarbg.me:80/announce
udp://10.rarbg.me:80/announce
udp://12.rarbg.me:80/announce
udp://9.rarbg.com:2710/announce
udp://open.demonii.com:1337/announce
udp://tracker.publicbt.com:80/announce
udp://tracker.istole.it:80/announce
udp://tracker.openbittorrent.com:80/announce
udp://tracker.istole.it:6969/announce
http://tracker.istole.it/announce
http://tracker.trackerfix.com/announce
udp://tracker.ccc.de:80/announce
http://tracker.thepiratebay.org/announce
udp://tracker-ccc.de:6969/announce
FILESIZE
Bad.Teacher.S01E08.720p.HDTV.x264-IMMERSE.mkv631.4 MB
RARBG.com.txt31 B
bad.teacher.s01e08.720p.hdtv.x264-immerse.nfo2.88 KB

Related results

Date Title Size Files Seeds Leechs Category Health
Video(TV) 622.64 MB 3 2014-07-12 1 0 25%

Login

Account deleting

Are you sure you want to delete your account?

WARNING: This action cannot be undone!!!