Login / Register

Conan.2014.06.26.Joel.McHale.HDTV.x264-CROOKS[rartv]

Category: Video
Type: TV
Movie Title: Conan
Cast: Paul Reubens,Jon Cryer,Will Ferrell,Larry King,Phyllis Applegate,José Arroyo,Roxanne Beckford,Roxanne Beckford,Christopher Birt,Kevin Clash,Jamie Denbo,Mary Pat Farrell,Will Forte,Bruce Greenwood,Robert Smigel,Trampas Thompson,Jon Hamm,Brandon Johnson
Genre: Comedy, Music, Talk-Show
External Links: IMDB
Directors: Allan Kartun,Iqbal Hans,Billy Bollotino
Producers: Conan O'Brien,J.P. Buck,Paula Davis,Kevin DiNovis,Tracy King,Jeffrey Ross,Mike Sweeney,Frank Smiley,Jordan Schlansky,Daniel Ferguson,Jason Chillemi,Doug Karo,Rachel Witlieb,Sarah Federowicz,Jeff Ross
Writers: Conan O'Brien,José Arroyo,Kevin DiNovis,Matt O'Brien,Michael Gordon,Brian Stack,Andy Richter,Brian McCann,Mike Sweeney,Brian Kiley,Dan Cronin,Berkley Johnson,Frank Smiley,Andres du Bouchet,Todd Levin,Rob Kutner,Alison Flierl,Deon Cole,Scott Chernoff
Duration: 60
Original run: 1993-09-12
IMDB rating: 8.5 (9,986 votes)
Summary: Keep cool, my babies.
Votes
Good: 0
Bad: 0
GoodBad
1
Seeders
0
Leechers

Added: 2014-06-27

Size: 319.64 MB

Health: 25%

Hash (Base16): 288239793736D23A122C069B90249D01C072B459

Hash (Base32): FCBDS6JXG3JDUERMA2NZAJE5AHAHFNCZ

DownloadBookmark
^

Conan.2014.06.26.Joel.McHale.HDTV.x264-CROOKS[rartv]

image
[mediainfo]

Video
ID : 2
Format : AVC
Format/Info : Advanced Video Codec
Format profile : High@L3.1
Format settings, CABAC : Yes
Format settings, ReFrames : 5 frames
Codec ID : avc1
Codec ID/Info : Advanced Video Coding
Duration : 41mn 59s
Bit rate : 933 Kbps
Maximum bit rate : 4 214 Kbps
Width : 720 pixels
Height : 404 pixels
Display aspect ratio : 16:9
Frame rate mode : Constant
Frame rate : 29.970 fps
Color space : YUV
Chroma subsampling : 4:2:0
Bit depth : 8 bits
Scan type : Progressive
Bits/(Pixel*Frame) : 0.107
Stream size : 280 MiB (88%)
Writing library : x264 core 142 r2431 ac76440
Encoding settings : cabac=1 / ref=5 / deblock=1:0:0 / analyse=0x3:0x113 / me=umh / subme=8 / psy=1 / psy_rd=1.00:0.00 / mixed_ref=1 / me_range=16 / chroma_me=1 / trellis=1 / 8x8dct=1 / cqm=0 / deadzone=21,11 / fast_pskip=1 / chroma_qp_offset=-2 / threads=6 / lookahead_threads=1 / sliced_threads=0 / nr=0 / decimate=1 / interlaced=0 / bluray_compat=0 / constrained_intra=0 / bframes=3 / b_pyramid=2 / b_adapt=2 / b_bias=0 / direct=3 / weightb=1 / open_gop=0 / weightp=2 / keyint=250 / keyint_min=25 / scenecut=40 / intra_refresh=0 / rc_lookahead=50 / rc=crf / mbtree=1 / crf=19.0 / qcomp=0.60 / qpmin=0 / qpmax=69 / qpstep=4 / ip_ratio=1.40 / aq=1:1.00
Encoded date : UTC 2014-06-27 12:07:11
Tagged date : UTC 2014-06-27 12:07:31
Matrix coefficients : BT.709

Audio
ID : 1
Format : AAC
Format/Info : Advanced Audio Codec
Format profile : LC
Codec ID : 40
Duration : 41mn 59s
Bit rate mode : Variable
Bit rate : 127 Kbps
Maximum bit rate : 168 Kbps
Channel(s) : 2 channels
Channel positions : Front: L R
Sampling rate : 48.0 KHz
Compression mode : Lossy
Stream size : 38.1 MiB (12%)
Encoded date : UTC 2014-06-27 12:07:10
Tagged date : UTC 2014-06-27 12:07:31

[/mediainfo]

TRACKERSEEDLEECHDOWNLOADED
http://mgtracker.org:2710/announce
udp://9.rarbg.me:2710/announce
udp://11.rarbg.me:80/announce
udp://10.rarbg.me:80/announce
udp://12.rarbg.me:80/announce
udp://9.rarbg.com:2710/announce
udp://open.demonii.com:1337/announce
udp://tracker.publicbt.com:80/announce
udp://tracker.istole.it:80/announce
udp://tracker.openbittorrent.com:80/announce
udp://tracker.istole.it:6969/announce
http://tracker.istole.it/announce
http://tracker.trackerfix.com/announce
http://9.rarbg.com:2710/announce
udp://tracker.ccc.de:80/announce
http://tracker.thepiratebay.org/announce
udp://tracker-ccc.de:6969/announce
FILESIZE
RARBG.com.txt31 B
conan.2014.06.26.joel.mchale.hdtv.x264-crooks.mp4319.63 MB
conan.2014.06.26.joel.mchale.hdtv.x264-crooks.nfo2.9 KB

Related results

Date Title Size Files Seeds Leechs Category Health
Video(TV) 1 GB 3 2014-06-26 1 0 25%

Login

Account deleting

Are you sure you want to delete your account?

WARNING: This action cannot be undone!!!