Login / Register

Seth.Meyers.2014.07.10.Keri.Russell.720p.HDTV.x264-CROOKS[rartv]

Category: Video
Type: TV
Movie Title: Late Night with Seth Meyers
Cast: Peter Grosz,Matt Vogel,John Lutz,Allison Williams,Michael Patrick O'Brien
Genre: Comedy, Talk-Show
External Links: IMDB
Director: Alexander J. Vietmeier
Producers: Lorne Michaels,Alex Baze,Michael Shoemaker,Kevin Miller,Hillary Selesnick Hunn,Eric Leiderman,Bee Shaffer,Michael Shoemaker
Writers: Colin Jost,Erik Kenward,Alex Baze,Seth Meyers,John Lutz,Michael Shoemaker,Matt Goldich,Peter Grosz,Michael Shoemaker
Duration: 45
Original run: 2014-03-08
IMDB rating: 7.6 (10,223 votes)
Summary: Seth Meyers, who is "Saturday Night Live’s" longest serving anchor on the show’s wildly popular "Weekend Update," takes over as host of NBC’s "Late Night" — home to A-list celebrity guests, memorable comedy and the best in musical talent. As the Emmy Award-winning head writer for "SNL," Meyers has established a reputation for sharp wit and perfectly timed comedy, and has gained fame for his spot-on jokes and satire. Meyers takes his departure from "SNL" to his new post at "Late Night," as Jimmy Fallon moves to "The Tonight Show".
Votes
Good: 0
Bad: 0
GoodBad
0
Seeders
1
Leechers

Added: 2014-07-11

Size: 1013.76 MB

Health: 25%

Hash (Base16): 9461D165BBB89DF6DDA464194B7D8C5F694B1F0E

Hash (Base32): SRQ5CZN3XCO7NXNEMQMUW7MML5UUWHYO

DownloadBookmark
^

Seth.Meyers.2014.07.10.Keri.Russell.720p.HDTV.x264-CROOKS[rartv]

image
[mediainfo]

Video
ID : 1
Format : AVC
Format/Info : Advanced Video Codec
Format profile : High@L4.1
Format settings, CABAC : Yes
Format settings, ReFrames : 8 frames
Codec ID : V_MPEG4/ISO/AVC
Duration : 41mn 6s
Bit rate : 2 946 Kbps
Width : 1 280 pixels
Height : 720 pixels
Display aspect ratio : 16:9
Frame rate mode : Constant
Frame rate : 29.970 fps
Color space : YUV
Chroma subsampling : 4:2:0
Bit depth : 8 bits
Scan type : Progressive
Bits/(Pixel*Frame) : 0.107
Stream size : 866 MiB (87%)
Writing library : x264 core 142 r2431 ac76440
Encoding settings : cabac=1 / ref=8 / deblock=1:0:0 / analyse=0x3:0x133 / me=umh / subme=9 / psy=1 / psy_rd=1.00:0.00 / mixed_ref=1 / me_range=16 / chroma_me=1 / trellis=2 / 8x8dct=1 / cqm=0 / deadzone=21,11 / fast_pskip=1 / chroma_qp_offset=-2 / threads=6 / lookahead_threads=1 / sliced_threads=0 / nr=0 / decimate=1 / interlaced=0 / bluray_compat=0 / constrained_intra=0 / bframes=3 / b_pyramid=2 / b_adapt=2 / b_bias=0 / direct=3 / weightb=1 / open_gop=0 / weightp=2 / keyint=250 / keyint_min=25 / scenecut=40 / intra_refresh=0 / rc_lookahead=60 / rc=crf / mbtree=1 / crf=18.0 / qcomp=0.60 / qpmin=0 / qpmax=69 / qpstep=4 / ip_ratio=1.40 / aq=1:1.00
Default : Yes
Forced : No

Audio
ID : 2
Format : AC-3
Format/Info : Audio Coding 3
Mode extension : CM (complete main)
Format settings, Endianness : Big
Codec ID : A_AC3
Duration : 41mn 6s
Bit rate mode : Constant
Bit rate : 384 Kbps
Channel(s) : 6 channels
Channel positions : Front: L C R, Side: L R, LFE
Sampling rate : 48.0 KHz
Bit depth : 16 bits
Compression mode : Lossy
Stream size : 113 MiB (11%)
Default : Yes
Forced : No

[/mediainfo]

TRACKERSEEDLEECHDOWNLOADED
udp://9.rarbg.me:2710/announce
udp://11.rarbg.me:80/announce
udp://10.rarbg.me:80/announce
udp://12.rarbg.me:80/announce
udp://9.rarbg.com:2710/announce
udp://open.demonii.com:1337/announce
udp://tracker.publicbt.com:80/announce
udp://tracker.istole.it:80/announce
udp://tracker.openbittorrent.com:80/announce
udp://tracker.istole.it:6969/announce
http://tracker.istole.it/announce
http://tracker.trackerfix.com/announce
udp://tracker.ccc.de:80/announce
http://tracker.thepiratebay.org/announce
udp://tracker-ccc.de:6969/announce
FILESIZE
RARBG.com.txt31 B
Sample/seth.meyers.2014.07.10.keri.russell.720p.hdtv.x264-crooks.sample.mkv14.78 MB
seth.meyers.2014.07.10.keri.russell.720p.hdtv.x264-crooks.mkv998.97 MB
seth.meyers.2014.07.10.keri.russell.720p.hdtv.x264-crooks.nfo2.9 KB

Related results

Date Title Size Files Seeds Leechs Category Health
Video(TV) 308.2 MB 4 2014-07-10 0 1 25%
Video(TV) 289.05 MB 3 2014-11-20 0 1 25%
Video(TV) 996.43 MB 3 2014-11-21 0 0 N/A

Login

Account deleting

Are you sure you want to delete your account?

WARNING: This action cannot be undone!!!