Login / Register

Seth.Meyers.2014.07.07.Brian.Williams.HDTV.x264-aAF[rartv]

Category: Video
Type: TV
Movie Title: Late Night with Seth Meyers
Episode Title: Brian Williams, Chrissy Teigen, Charli XCX
Release date: 2014-07-06
Cast: Peter Grosz,Matt Vogel,John Lutz,Allison Williams,Michael Patrick O'Brien
Genre: Comedy, Talk-Show
External Links: IMDB
Director: Alexander J. Vietmeier
Producers: Lorne Michaels,Alex Baze,Michael Shoemaker,Kevin Miller,Hillary Selesnick Hunn,Eric Leiderman,Bee Shaffer,Michael Shoemaker
Writers: Colin Jost,Erik Kenward,Alex Baze,Seth Meyers,John Lutz,Michael Shoemaker,Matt Goldich,Peter Grosz,Michael Shoemaker
Original run: 2014-02-24
IMDB rating: 6.2 (572 votes)
Summary: Seth Meyers, who is "Saturday Night Live’s" longest serving anchor on the show’s wildly popular "Weekend Update," takes over as host of NBC’s "Late Night" — home to A-list celebrity guests, memorable comedy and the best in musical talent. As the Emmy Award-winning head writer for "SNL," Meyers has established a reputation for sharp wit and perfectly timed comedy, and has gained fame for his spot-on jokes and satire. Meyers takes his departure from "SNL" to his new post at "Late Night," as Jimmy Fallon moves to "The Tonight Show".
Votes
Good: 0
Bad: 0
GoodBad
1
Seeders
0
Leechers

Added: 2014-07-11

Size: 293.88 MB

Health: 25%

Hash (Base16): E31E80A782C0578553B2ECA148C984D485354D02

Hash (Base32): 4MPIBJ4CYBLYKU5S5SQURSME2SCTKTIC

DownloadBookmark
^

Seth.Meyers.2014.07.07.Brian.Williams.HDTV.x264-aAF[rartv]

image
[mediainfo]

Video
ID : 2
Format : AVC
Format/Info : Advanced Video Codec
Format profile : [email protected]
Format settings, CABAC : Yes
Format settings, ReFrames : 5 frames
Codec ID : avc1
Codec ID/Info : Advanced Video Coding
Duration : 41mn 10s
Source duration : 41mn 10s
Bit rate : 870 Kbps
Maximum bit rate : 3 610 Kbps
Width : 720 pixels
Height : 404 pixels
Display aspect ratio : 16:9
Frame rate mode : Constant
Frame rate : 29.970 fps
Color space : YUV
Chroma subsampling : 4:2:0
Bit depth : 8 bits
Scan type : Progressive
Bits/(Pixel*Frame) : 0.100
Stream size : 256 MiB (87%)
Source stream size : 256 MiB (87%)
Writing library : x264 core 142 r2431 ac76440
Encoding settings : cabac=1 / ref=5 / deblock=1:0:0 / analyse=0x3:0x113 / me=umh / subme=8 / psy=1 / psy_rd=1.00:0.00 / mixed_ref=1 / me_range=16 / chroma_me=1 / trellis=1 / 8x8dct=1 / cqm=0 / deadzone=21,11 / fast_pskip=1 / chroma_qp_offset=-2 / threads=12 / lookahead_threads=2 / sliced_threads=0 / nr=0 / decimate=1 / interlaced=0 / bluray_compat=0 / constrained_intra=0 / bframes=3 / b_pyramid=2 / b_adapt=2 / b_bias=0 / direct=3 / weightb=1 / open_gop=0 / weightp=2 / keyint=250 / keyint_min=25 / scenecut=40 / intra_refresh=0 / rc_lookahead=50 / rc=crf / mbtree=1 / crf=19.0 / qcomp=0.60 / qpmin=0 / qpmax=69 / qpstep=4 / ip_ratio=1.40 / aq=1:1.00
Encoded date : UTC 2014-07-11 14:23:34
Tagged date : UTC 2014-07-11 14:23:46
Matrix coefficients : BT.709

Audio
ID : 1
Format : AAC
Format/Info : Advanced Audio Codec
Format profile : LC
Codec ID : 40
Duration : 41mn 10s
Bit rate mode : Variable
Bit rate : 123 Kbps
Maximum bit rate : 164 Kbps
Channel(s) : 2 channels
Channel positions : Front: L R
Sampling rate : 48.0 KHz
Compression mode : Lossy
Stream size : 36.4 MiB (12%)
Encoded date : UTC 2014-07-11 14:23:45
Tagged date : UTC 2014-07-11 14:23:46

[/mediainfo]

TRACKERSEEDLEECHDOWNLOADED
udp://9.rarbg.me:2710/announce
udp://11.rarbg.me:80/announce
udp://10.rarbg.me:80/announce
udp://12.rarbg.me:80/announce
udp://9.rarbg.com:2710/announce
udp://open.demonii.com:1337/announce
udp://tracker.publicbt.com:80/announce
udp://tracker.istole.it:80/announce
udp://tracker.openbittorrent.com:80/announce
udp://tracker.istole.it:6969/announce
http://tracker.trackerfix.com/announce
udp://tracker.ccc.de:80/announce
http://tracker.thepiratebay.org/announce
udp://tracker-ccc.de:6969/announce
FILESIZE
RARBG.com.txt31 B
Seth.Meyers.2014.07.07.Brian.Williams.HDTV.x264-aAF.mp4293.88 MB
aaf-seth.meyers.2014.07.07.brian.williams.hdtv.x264.nfo3.08 KB

Related results

Date Title Size Files Seeds Leechs Category Health
Video(TV) 1.03 GB 4 2014-07-10 1 0 25%

Login

Account deleting

Are you sure you want to delete your account?

WARNING: This action cannot be undone!!!