Login / Register
Cam

Maleficent.2014.NEW.SOURCE.CAM.XviD.MP3-RARBG

Category: Video
Type: Movies
Language: English
Movie Title: Maleficent
Detected quality: Cam
Release date: 2014-05-29
Cast: Sharlto Copley,Elle Fanning,Juno Temple,Brenton Thwaites,Ella Purnell,Imelda Staunton,Sam Riley,Lesley Manville,Hannah New,Kenneth Cranham,Leo Suter,Richard Summers-Calvert,Jackson Bews,Terri Douglas,Sandy Fox,Sandy Fox,David Boat,Jamie Sives
Genre: Action, Adventure, Drama
External Links: IMDB
Director: Robert Stromberg
Producers: Angelina Jolie,Stephen Jones,Joe Roth,Sarah Bradshaw,Don Hahn,Lori Korngiebel,Scott Michael Murray,Palak Patel,Matt Smith
Writers: Milt Banta,Charles Perrault,Ted Sears,Jacob Grimm,Wilhelm Grimm,Winston Hibler,Bill Peet,Erdman Penner,Ralph Wright,Joe Rinaldi,Linda Woolverton
Duration: 97
IMDB rating: 7.1 (175,067 votes)
Summary: The "Sleeping Beauty" tale is told from the perspective of the villainous Maleficent and looks at the events that hardened her heart and drove her to curse young Princess Aurora.
Votes
Good: 0
Bad: 0
GoodBad
3
Seeders
3
Leechers

Added: 2014-06-05

Size: 1.16 GB

Health: 25%

Hash (Base16): 6AACE2E09BCEF8A42E2F4D86DA819EAFB8F11282

Hash (Base32): NKWOFYE3Z34KILRPJWDNVAM6V64PCEUC

DownloadBookmark
^

Maleficent.2014.NEW.SOURCE.CAM.XviD.MP3-RARBG

image

Title: Il était une fois les boys (2013)
IMDB Rating: 6.4/10
Genres: Comedy , Drama , Romance , Sport
Actors: Simon Pigeon , Derek Poissant , Samuel Gauthier , Jassen Charron , Maxime Desjardins-Tremblay , William Legault Lacasse , Maxime Gibault , Rémy Girard , Luc Guérin , Marc Messier , Pierre Lebeau , Yvan Ponton , Roc LaFortune , Patrick Labbé , Esther Hardy
Runtime: 106
Year: 2013
Plot:
Winter of 1967| the fifth installment meeting how did the friendship of future boys| Stan| Meo| Jean-Charles| Marcel| Bob & Fernand.

Maleficent.2014.CAM.NEW.SOURCE.XviD.MP3-RARBG

http://www.imdb.com/title/tt1587310/

Screens:
image
image
image
image
image
image
image
image
image
image

Info:
Format : AVI
Format/Info : Audio Video Interleave
File size : 1.11 GiB
Duration : 1h 28mn
Overall bit rate : 1 801 Kbps
Movie name : RARBG.COM - Maleficent.2014.CAM.NEW.SOURCE.XviD.MP3-RARBG
Writing library : VirtualDub build 35491/release
Comment : RARBG.COM - Maleficent.2014.CAM.NEW.SOURCE.XviD.MP3-RARBG

Video
ID : 0
Format : MPEG-4 Visual
Format profile : Simple@L5
Format settings, BVOP : No
Format settings, QPel : No
Format settings, GMC : No warppoints
Format settings, Matrix : Default (H.263)
Codec ID : XVID
Codec ID/Hint : XviD
Duration : 1h 28mn
Bit rate : 1 469 Kbps
Width : 768 pixels
Height : 306 pixels
Display aspect ratio : 2.510
Frame rate : 23.976 fps
Color space : YUV
Chroma subsampling : 4:2:0
Bit depth : 8 bits
Scan type : Progressive
Compression mode : Lossy
Bits/(Pixel*Frame) : 0.261
Stream size : 931 MiB (82%)
Writing library : Lavc55.61.100

Audio
ID : 1
Format : MPEG Audio
Format version : Version 1
Format profile : Layer 3
Codec ID : 55
Codec ID/Hint : MP3
Duration : 1h 28mn
Bit rate mode : Constant
Bit rate : 320 Kbps
Channel(s) : 1 channel
Sampling rate : 44.1 KHz
Compression mode : Lossy
Stream size : 203 MiB (18%)
Alignment : Aligned on interleaves
Interleave, duration : 26 ms (0.63 video frame)
Interleave, preload duration : 522 ms
Writing library : LAME3.99r
Encoding settings : -m m -V 4 -q 3 -lowpass 20.5



Notes:
Notes : There were a lot of kids eating popcorn in the cinema today so you might hear occasional popcorn stuffing. The cinema was full i couldnt move. Turns out its 1st of June. Also i was drunk. Sorry about that :D
Greetz to everyone :)
PS: This is a full video with full audio.

TRACKERSEEDLEECHDOWNLOADED
udp://tracker.coppersurfer.tk:6969/announce3318031
udp://9.rarbg.me:2710/announce
udp://11.rarbg.me:80/announce
udp://10.rarbg.me:80/announce
udp://12.rarbg.me:80/announce
udp://9.rarbg.com:2710/announce
udp://open.demonii.com:1337/announce
udp://tracker.publicbt.com:80/announce
udp://tracker.istole.it:80/announce
udp://tracker.openbittorrent.com:80/announce
udp://tracker.istole.it:6969/announce
http://tracker.istole.it/announce
http://tracker.nwps.ws:6969/announce
http://bt.careland.com.cn:6969/announce
http://bttracker.crunchbanglinux.org:6969/announce
http://tracker.best-torrents.net:6969/announce
http://tracker.trackerfix.com/announce
http://9.rarbg.com:2710/announce
udp://tracker.ccc.de:80/announce
http://tracker.thepiratebay.org/announce
http://210.244.71.11:6969/announce
http://www.eddie4.nl:6969/announce
http://explodie.org:6969/announce
udp://tracker-ccc.de:6969/announce
FILESIZE
Maleficent.2014.CAM.NEW.SOURCE.XviD.MP3-RARBG.avi1.11 GB
Sample/Sample.avi48.26 MB
RARBG.com.avi1.14 MB
Maleficent.2014.CAM.NEW.SOURCE.XviD.MP3-RARBG.nfo3.36 KB
RARBG.com.txt31 B

Login

Account deleting

Are you sure you want to delete your account?

WARNING: This action cannot be undone!!!