Login / Register

The.Colbert.Report.2014.06.26.Paul.Rudd.720p.HDTV.x264-BATV[rartv]

Category: Video
Type: TV
Movie Title: The Colbert Report
Episode Title: Paul Rudd
Release date: 2014-06-25
Cast: Matthew Wood,Sam Waterston,Scott Adsit,Ahmed Best,David Oliver Cohen,David Cross,Rich Dahm,Rich Dahm,Paul Dinello,Eric Drysdale,Glenn Eichler,Jimmy Fallon,James Franco,Ralph Archbold,Samuel L. Jackson,Eugene Mirman,John Lithgow,Jon Glaser,Amy Sedaris
Genre: Comedy, News, Talk-Show
External Links: IMDB
Directors: Jim Hoskinson,Paul B. Cummings
Producers: Stephen Colbert,Rich Dahm,Rich Dahm,Paul Dinello,Glenn Eichler,Jon Stewart,Cole Kazdin,Samantha Scharff,Tanya Michnevich,Allison Silverman,Ben Karlin,Meredith Bennett,Tom Purcell,Barry Julien,Matt Lappin,Laura Ganis,John Bedolis,Gabe Gronli
Writers: Stephen Colbert,Rich Dahm,Rich Dahm,Paul Dinello,Eric Drysdale,Glenn Eichler,Michael Koman,Allison Silverman,Meredith Scardino,Bryan Adams,Tom Purcell,Barry Julien,Peter Grosz,Bobby Mort,Laura Krafft,Peter Gwinn,Jay Katsir,Michael Brumm,Rob Dubbin
Duration: 30
Original run: 2005-10-16
IMDB rating: 8.7 (21,277 votes)
Summary: Satirist news caster Stephen Colbert provides humorous commentary on the big issues going on in the United States and the rest of the world, with his larger then life ego and overly patriotic spirit along with him every step of the way.
Votes
Good: 0
Bad: 0
GoodBad
0
Seeders
3
Leechers

Added: 2014-06-27

Size: 628.45 MB

Health: 25%

Hash (Base16): 3634508BB5886A71F701BE370136BF8229AAF1CB

Hash (Base32): GY2FBC5VRBVHD5YBXY3QCNV7QIU2V4OL

DownloadBookmark
DOWNLOAD LOCATIONS
http://rarbg.to/torrent/d7rvash
http://bitsnoop.com/the-colbert-report-2014-06-26-paul-q65468660.html
http://thepiratebay.se/torrent/10437486/The.Colbert.Report.2014.06.26.Paul.Rudd.720p.HDTV.x264-BATV[rart
http://isohunt.to/torrent_details/11724808/The-Colbert-Report-2014-06-26-Paul-Rudd-720p-HDTV-x264-BATV-rarbg
http://torrenthound.to/hash/3634508bb5886a71f701be370136bf8229aaf1cb/torrent-info/The.Colbert.Report.2014.06.26.Paul.Rudd.720p.HDTV.x264-BATV-rartv#files
http://www.monova.org/torrent/8188523/TheColbertReport20140626PaulRudd720pHDTVx264-BATV_rartv_.html
http://www.torlock.com/torrent/3033963/the-colbert-report-2014-06-26-paul-rudd-720p-x264-batvbg.html
http://www.torrents.net/torrent/5129220/The.Colbert.Report.2014.06.26.Paul.Rudd.720p.HDTV.x264-BATV[rarbg]/
http://www.limetorrents.cc/The-Colbert-Report-2014-06-26-Paul-Rudd-720p-HDTV-x264-BATV[rart-torrent-4727317.html
http://fastpiratebay.eu/thepiratebay.se/torrent/10437486/The.Colbert.Report.2014.06.26.Paul.Rudd.720p.HDTV.x264-BATV[rart
http://www.torrentreactor.net/torrents/23854611/The-Colbert-Report-2014-06-26-Paul-Rudd-720p-HDTV-x264-BATV-rarbg
http://www.seedpeer.me/details/8239094/The.Colbert.Report.2014.06.26.Paul.Rudd.720p.HDTV.x264-BATV%5Brart.html
http://www.torrentdownloads.me/torrent/1658532334/The+Colbert+Report+2014+06+26+Paul+Rudd+720p+HDTV+x264-BATV%5Brarbg%5D
http://www.torrentfunk.com/torrent/8781655/the-colbert-report-2014-06-26-paul-rudd-720p-x264-batvbg.html
http://torrentproject.se/3634508bb5886a71f701be370136bf8229aaf1cb/The-Colbert-Report-(2014)-06-26-Paul-Rudd-720p-HDTV-x264-BATV-rarbg-torrent.html
^

The.Colbert.Report.2014.06.26.Paul.Rudd.720p.HDTV.x264-BATV[rartv]

image
[mediainfo]

Video
ID : 1
Format : AVC
Format/Info : Advanced Video Codec
Format profile : High@L4.1
Format settings, CABAC : Yes
Format settings, ReFrames : 5 frames
Codec ID : V_MPEG4/ISO/AVC
Duration : 21mn 29s
Bit rate : 3 622 Kbps
Width : 1 280 pixels
Height : 720 pixels
Display aspect ratio : 16:9
Frame rate mode : Constant
Frame rate : 29.970 fps
Color space : YUV
Chroma subsampling : 4:2:0
Bit depth : 8 bits
Scan type : Progressive
Bits/(Pixel*Frame) : 0.131
Stream size : 557 MiB (89%)
Writing library : x264 core 142 r2431 ac76440
Encoding settings : cabac=1 / ref=5 / deblock=1:0:0 / analyse=0x3:0x113 / me=umh / subme=8 / psy=1 / psy_rd=1.00:0.00 / mixed_ref=1 / me_range=16 / chroma_me=1 / trellis=1 / 8x8dct=1 / cqm=0 / deadzone=21,11 / fast_pskip=1 / chroma_qp_offset=-2 / threads=18 / lookahead_threads=3 / sliced_threads=0 / nr=0 / decimate=1 / interlaced=0 / bluray_compat=0 / constrained_intra=0 / bframes=3 / b_pyramid=2 / b_adapt=2 / b_bias=0 / direct=3 / weightb=1 / open_gop=0 / weightp=2 / keyint=250 / keyint_min=25 / scenecut=40 / intra_refresh=0 / rc_lookahead=50 / rc=crf / mbtree=1 / crf=18.0 / qcomp=0.60 / qpmin=0 / qpmax=69 / qpstep=4 / ip_ratio=1.40 / aq=1:1.00
Language : English
Default : Yes
Forced : No
Matrix coefficients : BT.709

Audio
ID : 2
Format : AC-3
Format/Info : Audio Coding 3
Mode extension : CM (complete main)
Format settings, Endianness : Big
Codec ID : A_AC3
Duration : 21mn 29s
Bit rate mode : Constant
Bit rate : 384 Kbps
Channel(s) : 2 channels
Channel positions : Front: L R
Sampling rate : 48.0 KHz
Bit depth : 16 bits
Compression mode : Lossy
Stream size : 59.0 MiB (9%)
Default : Yes
Forced : No

[/mediainfo]

TRACKERSEEDLEECHDOWNLOADED
udp://tracker.coppersurfer.tk:6969/announce
http://mgtracker.org:2710/announce030
udp://mgtracker.org:2710/announce030
udp://9.rarbg.me:2710/announce
udp://11.rarbg.me:80/announce
udp://10.rarbg.me:80/announce
udp://12.rarbg.me:80/announce
udp://9.rarbg.com:2710/announce
udp://open.demonii.com:1337/announce
udp://tracker.publicbt.com:80/announce
udp://tracker.istole.it:80/announce
udp://tracker.openbittorrent.com:80/announce
udp://tracker.istole.it:6969/announce
http://tracker.istole.it/announce
http://tracker.leechers-paradise.org:6969/announce
http://tracker.nwps.ws:6969/announce
http://bt.careland.com.cn:6969/announce
http://tracker.trackerfix.com/announce
http://9.rarbg.com:2710/announce
udp://tracker.ccc.de:80/announce
http://tracker.thepiratebay.org/announce
http://shadowshq.eddie4.nl:6969/announce
http://shadowshq.yi.org:6969/announce
http://www.eddie4.nl:6969/announce
http://eddie4.nl:6969/announce
http://retracker.perm.ertelecom.ru/announce
udp://tracker-ccc.de:6969/announce
FILESIZE
RARBG.com.txt31 B
The.Colbert.Report.2014.06.26.Paul.Rudd.720p.HDTV.x264-BATV.mkv628.45 MB
the.colbert.report.2014.06.26.paul.rudd.720p.hdtv.x264-batv.nfo820 B

Related results

Date Title Size Files Seeds Leechs Category Health
Video(TV) 134.24 MB 3 2014-04-24 1 0 25%
Video(TV) 155.15 MB 3 2014-05-14 0 1 25%
Video(TV) 565.89 MB 4 2014-05-12 0 1 25%
Video(TV) 143.07 MB 3 2014-04-23 1 0 25%
Video(TV) 186.74 MB 3 2013-11-11 0 1 25%

Login

Account deleting

Are you sure you want to delete your account?

WARNING: This action cannot be undone!!!