Login / Register

The.Colbert.Report.2014.06.26.Paul.Rudd.HDTV.x264-BATV[rartv]

Category: Video
Type: TV
Movie Title: The Colbert Report
Episode Title: Paul Rudd
Release date: 2014-06-25
Cast: Matthew Wood,Sam Waterston,Scott Adsit,Ahmed Best,David Oliver Cohen,David Cross,Rich Dahm,Rich Dahm,Paul Dinello,Eric Drysdale,Glenn Eichler,Jimmy Fallon,James Franco,Ralph Archbold,Samuel L. Jackson,Eugene Mirman,John Lithgow,Jon Glaser,Amy Sedaris
Genre: Comedy, News, Talk-Show
External Links: IMDB
Directors: Jim Hoskinson,Paul B. Cummings
Producers: Stephen Colbert,Rich Dahm,Rich Dahm,Paul Dinello,Glenn Eichler,Jon Stewart,Cole Kazdin,Samantha Scharff,Tanya Michnevich,Allison Silverman,Ben Karlin,Meredith Bennett,Tom Purcell,Barry Julien,Matt Lappin,Laura Ganis,John Bedolis,Gabe Gronli
Writers: Stephen Colbert,Rich Dahm,Rich Dahm,Paul Dinello,Eric Drysdale,Glenn Eichler,Michael Koman,Allison Silverman,Meredith Scardino,Bryan Adams,Tom Purcell,Barry Julien,Peter Grosz,Bobby Mort,Laura Krafft,Peter Gwinn,Jay Katsir,Michael Brumm,Rob Dubbin
Duration: 30
Original run: 2005-10-16
IMDB rating: 8.7 (21,277 votes)
Summary: Satirist news caster Stephen Colbert provides humorous commentary on the big issues going on in the United States and the rest of the world, with his larger then life ego and overly patriotic spirit along with him every step of the way.
Votes
Good: 0
Bad: 0
GoodBad
0
Seeders
1
Leechers

Added: 2014-06-27

Size: 178.58 MB

Health: 25%

Hash (Base16): D429BCDB0B8C54BC6CF3352324F70216682B47DB

Hash (Base32): 2QU3ZWYLRRKLY3HTGURSJ5YCCZUCWR63

DownloadBookmark
^

The.Colbert.Report.2014.06.26.Paul.Rudd.HDTV.x264-BATV[rartv]

image
[mediainfo]

Video
ID : 2
Format : AVC
Format/Info : Advanced Video Codec
Format profile : High@L3.1
Format settings, CABAC : Yes
Format settings, ReFrames : 5 frames
Codec ID : avc1
Codec ID/Info : Advanced Video Coding
Duration : 21mn 29s
Source duration : 21mn 29s
Bit rate : 1 047 Kbps
Maximum bit rate : 5 118 Kbps
Width : 720 pixels
Height : 404 pixels
Display aspect ratio : 16:9
Frame rate mode : Constant
Frame rate : 29.970 fps
Color space : YUV
Chroma subsampling : 4:2:0
Bit depth : 8 bits
Scan type : Progressive
Bits/(Pixel*Frame) : 0.120
Stream size : 161 MiB (90%)
Source stream size : 161 MiB (90%)
Writing library : x264 core 142 r2431 ac76440
Encoding settings : cabac=1 / ref=5 / deblock=1:0:0 / analyse=0x3:0x113 / me=umh / subme=8 / psy=1 / psy_rd=1.00:0.00 / mixed_ref=1 / me_range=16 / chroma_me=1 / trellis=1 / 8x8dct=1 / cqm=0 / deadzone=21,11 / fast_pskip=1 / chroma_qp_offset=-2 / threads=18 / lookahead_threads=3 / sliced_threads=0 / nr=0 / decimate=1 / interlaced=0 / bluray_compat=0 / constrained_intra=0 / bframes=3 / b_pyramid=2 / b_adapt=2 / b_bias=0 / direct=3 / weightb=1 / open_gop=0 / weightp=2 / keyint=250 / keyint_min=25 / scenecut=40 / intra_refresh=0 / rc_lookahead=50 / rc=crf / mbtree=1 / crf=19.0 / qcomp=0.60 / qpmin=0 / qpmax=69 / qpstep=4 / ip_ratio=1.40 / aq=1:1.00
Encoded date : UTC 2014-06-27 04:15:16
Tagged date : UTC 2014-06-27 04:30:28
Matrix coefficients : BT.709

Audio
ID : 1
Format : AAC
Format/Info : Advanced Audio Codec
Format profile : LC
Codec ID : 40
Duration : 21mn 29s
Bit rate mode : Variable
Bit rate : 110 Kbps
Maximum bit rate : 140 Kbps
Channel(s) : 2 channels
Channel positions : Front: L R
Sampling rate : 48.0 KHz
Compression mode : Lossy
Stream size : 17.0 MiB (9%)
Encoded date : UTC 2014-06-27 04:30:26
Tagged date : UTC 2014-06-27 04:30:28

[/mediainfo]

TRACKERSEEDLEECHDOWNLOADED
udp://9.rarbg.me:2710/announce
udp://11.rarbg.me:80/announce
udp://10.rarbg.me:80/announce
udp://12.rarbg.me:80/announce
udp://9.rarbg.com:2710/announce
udp://open.demonii.com:1337/announce
udp://tracker.publicbt.com:80/announce
udp://tracker.istole.it:80/announce
udp://tracker.openbittorrent.com:80/announce
udp://tracker.istole.it:6969/announce
http://tracker.istole.it/announce
http://tracker.trackerfix.com/announce
http://9.rarbg.com:2710/announce
udp://tracker.ccc.de:80/announce
http://tracker.thepiratebay.org/announce
udp://tracker-ccc.de:6969/announce
FILESIZE
RARBG.com.txt31 B
The.Colbert.Report.2014.06.26.Paul.Rudd.HDTV.x264-BATV.mp4178.58 MB
the.colbert.report.2014.06.26.paul.rudd.hdtv.x264-batv.nfo789 B

Related results

Date Title Size Files Seeds Leechs Category Health
Video(TV) 134.24 MB 3 2014-04-24 0 1 25%
Video(TV) 155.15 MB 3 2014-05-14 1 0 25%
Video(TV) 565.89 MB 4 2014-05-12 0 1 25%
Video(TV) 143.07 MB 3 2014-04-23 0 1 25%
Video(TV) 186.74 MB 3 2013-11-11 0 1 25%

Login

Account deleting

Are you sure you want to delete your account?

WARNING: This action cannot be undone!!!