Login / Register

The.Daily.Show.2014.06.25.Keira.Knightley.720p.HDTV.x264-CROOKS[rartv]

Category: Video
Type: TV
Language: English
Movie Title: The Daily Show
Episode Title: Keira Knightley
Release date: 2014-06-24
Cast: Christopher Guest,Wallace Shawn,Michael McKean,Harry Shearer,Jason Jones,Elliott Kalan,Kimberly Magness,Jaden Michael,Harry Shearer
Genre: Comedy, News, Talk-Show
External Links: IMDB
Directors: Andy Barsh,Chuck O'Neil,Scott Preston,Jim Hoskinson,Scott Preston
Producers: Stewart Bailey,Dave Blog,Kevin Blond,Edward Butler,Adam Chodikoff,Stephen Colbert,Kahane Cooperman,Lindsay Crystal,Evan Cutler,Rich Dahm,Rich Dahm,Chiara Edmands,Glenn Eichler,Bronwen Epstein,Jon Stewart,Rob Fox,Hank Gallo,Michael McDermott,Jeff Stilson
Writers: Kevin Bleyer,A. Whitney Brown,Stephen Colbert,Rich Dahm,Rich Dahm,Eric Drysdale,Jim Earl,Jon Stewart,David Feldman,Scott Jacobson,Jeff Stilson,Charlie Grandy,Ray James,Rich Blomquist,Josh Lieb,Guy Nicolucci,Daniel J. Goor,Allison Silverman,Aaron Bergeron
Duration: 30
Original run: 1996-07-21
Summary: America's top fake news show.
Votes
Good: 0
Bad: 0
GoodBad
0
Seeders
1
Leechers

Added: 2014-06-26

Size: 571.92 MB

Health: 25%

Hash (Base16): B5EB1F1FC6EE44BAE6D0CD6270D49EEBB17DCE32

Hash (Base32): WXVR6H6G5ZCLVZWQZVRHBVE65OYX3TRS

DownloadBookmark
^

The.Daily.Show.2014.06.25.Keira.Knightley.720p.HDTV.x264-CROOKS[rartv]

image
[mediainfo]

Video
ID : 1
Format : AVC
Format/Info : Advanced Video Codec
Format profile : [email protected]
Format settings, CABAC : Yes
Format settings, ReFrames : 8 frames
Codec ID : V_MPEG4/ISO/AVC
Duration : 21mn 28s
Bit rate : 3 105 Kbps
Width : 1 280 pixels
Height : 720 pixels
Display aspect ratio : 16:9
Frame rate mode : Constant
Frame rate : 29.970 fps
Color space : YUV
Chroma subsampling : 4:2:0
Bit depth : 8 bits
Scan type : Progressive
Bits/(Pixel*Frame) : 0.112
Stream size : 477 MiB (87%)
Writing library : x264 core 142 r2431 ac76440
Encoding settings : cabac=1 / ref=8 / deblock=1:0:0 / analyse=0x3:0x133 / me=umh / subme=9 / psy=1 / psy_rd=1.00:0.00 / mixed_ref=1 / me_range=16 / chroma_me=1 / trellis=2 / 8x8dct=1 / cqm=0 / deadzone=21,11 / fast_pskip=1 / chroma_qp_offset=-2 / threads=6 / lookahead_threads=1 / sliced_threads=0 / nr=0 / decimate=1 / interlaced=0 / bluray_compat=0 / constrained_intra=0 / bframes=3 / b_pyramid=2 / b_adapt=2 / b_bias=0 / direct=3 / weightb=1 / open_gop=0 / weightp=2 / keyint=250 / keyint_min=25 / scenecut=40 / intra_refresh=0 / rc_lookahead=60 / rc=crf / mbtree=1 / crf=18.0 / qcomp=0.60 / qpmin=0 / qpmax=69 / qpstep=4 / ip_ratio=1.40 / aq=1:1.00
Default : Yes
Forced : No

Audio
ID : 2
Format : AC-3
Format/Info : Audio Coding 3
Mode extension : CM (complete main)
Format settings, Endianness : Big
Codec ID : A_AC3
Duration : 21mn 28s
Bit rate mode : Constant
Bit rate : 384 Kbps
Channel(s) : 6 channels
Channel positions : Front: L C R, Side: L R, LFE
Sampling rate : 48.0 KHz
Bit depth : 16 bits
Compression mode : Lossy
Stream size : 59.0 MiB (11%)
Default : Yes
Forced : No

[/mediainfo]

TRACKERSEEDLEECHDOWNLOADED
udp://9.rarbg.me:2710/announce
udp://11.rarbg.me:80/announce
udp://10.rarbg.me:80/announce
udp://12.rarbg.me:80/announce
udp://9.rarbg.com:2710/announce
udp://open.demonii.com:1337/announce
udp://tracker.publicbt.com:80/announce
udp://tracker.istole.it:80/announce
udp://tracker.openbittorrent.com:80/announce
udp://tracker.istole.it:6969/announce
http://tracker.istole.it/announce
http://tracker.nwps.ws:6969/announce
http://tracker.trackerfix.com/announce
http://9.rarbg.com:2710/announce
udp://tracker.ccc.de:80/announce
http://shadowshq.eddie4.nl:6969/announce
http://www.eddie4.nl:6969/announce
http://eddie4.nl:6969/announce
http://explodie.org:6969/announce
FILESIZE
RARBG.com.txt31 B
Sample/the.daily.show.2014.06.25.keira.knightley.720p.hdtv.x264-crooks.sample.mkv25.21 MB
the.daily.show.20125.ketley.720p.hdtp.hdtv.x26.hdtv.x264-crooks.nfo2.9 KB
the.daily.show.2014.06.25.keira.knightley.720p.hdtv.x264-crooks.mkv546.7 MB
the.daily.show.2014.06.25.keira.knightley.720p.hdtv.x264-crooks.nfo2.9 KB

Related results

Date Title Size Files Seeds Leechs Category Health
Video(TV) 179.15 MB 1 2014-06-25 1 0 25%
Video(TV) 179.15 MB 3 2014-06-25 1 0 25%
Video(TV) 571.91 MB 5 2014-06-26 1 0 25%
Video(TV) 179.15 MB 4 2014-06-25 1 0 25%
Video(TV) 179.15 MB 1 2014-06-26 1 0 25%

Login

Account deleting

Are you sure you want to delete your account?

WARNING: This action cannot be undone!!!