Login / Register

The.Daily.Show.2014.06.26.Melissa.McCarthy.HDTV.x264-BATV[rartv]

Category: Video
Type: TV
Language: English
Movie Title: The Daily Show
Episode Title: Melissa McCarthy
Release date: 2014-06-25
Cast: Christopher Guest,Wallace Shawn,Michael McKean,Harry Shearer,Jason Jones,Elliott Kalan,Kimberly Magness,Jaden Michael,Harry Shearer
Genre: Comedy, News, Talk-Show
External Links: IMDB
Directors: Andy Barsh,Chuck O'Neil,Scott Preston,Jim Hoskinson,Scott Preston
Producers: Stewart Bailey,Dave Blog,Kevin Blond,Edward Butler,Adam Chodikoff,Stephen Colbert,Kahane Cooperman,Lindsay Crystal,Evan Cutler,Rich Dahm,Rich Dahm,Chiara Edmands,Glenn Eichler,Bronwen Epstein,Jon Stewart,Rob Fox,Hank Gallo,Michael McDermott,Jeff Stilson
Writers: Kevin Bleyer,A. Whitney Brown,Stephen Colbert,Rich Dahm,Rich Dahm,Eric Drysdale,Jim Earl,Jon Stewart,David Feldman,Scott Jacobson,Jeff Stilson,Charlie Grandy,Ray James,Rich Blomquist,Josh Lieb,Guy Nicolucci,Daniel J. Goor,Allison Silverman,Aaron Bergeron
Duration: 30
Original run: 1996-07-21
Summary: America's top fake news show.
Votes
Good: 0
Bad: 0
GoodBad
1
Seeders
0
Leechers

Added: 2014-06-27

Size: 159.61 MB

Health: 25%

Hash (Base16): CA27AD3986D81B50449D378806159A69C4FF93F7

Hash (Base32): ZIT22OMG3ANVARE5G6EAMFM2NHCP7E7X

DownloadBookmark
^

The.Daily.Show.2014.06.26.Melissa.McCarthy.HDTV.x264-BATV[rartv]

image
[mediainfo]

Video
ID : 2
Format : AVC
Format/Info : Advanced Video Codec
Format profile : High@L3.1
Format settings, CABAC : Yes
Format settings, ReFrames : 5 frames
Codec ID : avc1
Codec ID/Info : Advanced Video Coding
Duration : 21mn 28s
Source duration : 21mn 28s
Bit rate : 917 Kbps
Maximum bit rate : 4 353 Kbps
Width : 720 pixels
Height : 404 pixels
Display aspect ratio : 16:9
Frame rate mode : Constant
Frame rate : 29.970 fps
Color space : YUV
Chroma subsampling : 4:2:0
Bit depth : 8 bits
Scan type : Progressive
Bits/(Pixel*Frame) : 0.105
Stream size : 141 MiB (88%)
Source stream size : 141 MiB (88%)
Writing library : x264 core 142 r2431 ac76440
Encoding settings : cabac=1 / ref=5 / deblock=1:0:0 / analyse=0x3:0x113 / me=umh / subme=8 / psy=1 / psy_rd=1.00:0.00 / mixed_ref=1 / me_range=16 / chroma_me=1 / trellis=1 / 8x8dct=1 / cqm=0 / deadzone=21,11 / fast_pskip=1 / chroma_qp_offset=-2 / threads=18 / lookahead_threads=3 / sliced_threads=0 / nr=0 / decimate=1 / interlaced=0 / bluray_compat=0 / constrained_intra=0 / bframes=3 / b_pyramid=2 / b_adapt=2 / b_bias=0 / direct=3 / weightb=1 / open_gop=0 / weightp=2 / keyint=250 / keyint_min=25 / scenecut=40 / intra_refresh=0 / rc_lookahead=50 / rc=crf / mbtree=1 / crf=19.0 / qcomp=0.60 / qpmin=0 / qpmax=69 / qpstep=4 / ip_ratio=1.40 / aq=1:1.00
Encoded date : UTC 2014-06-27 03:46:04
Tagged date : UTC 2014-06-27 04:09:12
Matrix coefficients : BT.709

Audio
ID : 1
Format : AAC
Format/Info : Advanced Audio Codec
Format profile : LC
Codec ID : 40
Duration : 21mn 28s
Bit rate mode : Variable
Bit rate : 118 Kbps
Maximum bit rate : 146 Kbps
Channel(s) : 2 channels
Channel positions : Front: L R
Sampling rate : 48.0 KHz
Compression mode : Lossy
Stream size : 18.1 MiB (11%)
Encoded date : UTC 2014-06-27 04:09:11
Tagged date : UTC 2014-06-27 04:09:12

[/mediainfo]

TRACKERSEEDLEECHDOWNLOADED
udp://9.rarbg.me:2710/announce
udp://11.rarbg.me:80/announce
udp://10.rarbg.me:80/announce
udp://12.rarbg.me:80/announce
udp://9.rarbg.com:2710/announce
udp://open.demonii.com:1337/announce
udp://tracker.publicbt.com:80/announce
udp://tracker.istole.it:80/announce
udp://tracker.openbittorrent.com:80/announce
udp://tracker.istole.it:6969/announce
http://tracker.istole.it/announce
http://tracker.trackerfix.com/announce
http://9.rarbg.com:2710/announce
udp://tracker.ccc.de:80/announce
http://tracker.thepiratebay.org/announce
udp://tracker-ccc.de:6969/announce
FILESIZE
RARBG.com.txt31 B
The.Daily.Show.2014.06.26.Melissa.McCarthy.HDTV.x264-BATV.mp4159.61 MB
the.daily.show.2014.06.26.melissa.mccarthy.hdtv.x264-batv.nfo789 B

Related results

Date Title Size Files Seeds Leechs Category Health
Video(TV) 515.94 MB 3 2014-06-26 1 0 25%

Login

Account deleting

Are you sure you want to delete your account?

WARNING: This action cannot be undone!!!