Login / Register

The.Daily.Show.2014.06.26.Melissa.McCarthy.720p.HDTV.x264-BATV[rartv]

Category: Video
Type: TV
Language: English
Movie Title: The Daily Show
Episode Title: Melissa McCarthy
Release date: 2014-06-25
Cast: Christopher Guest,Wallace Shawn,Michael McKean,Harry Shearer,Jason Jones,Elliott Kalan,Kimberly Magness,Jaden Michael,Harry Shearer
Genre: Comedy, News, Talk-Show
External Links: IMDB
Directors: Andy Barsh,Chuck O'Neil,Scott Preston,Jim Hoskinson,Scott Preston
Producers: Stewart Bailey,Dave Blog,Kevin Blond,Edward Butler,Adam Chodikoff,Stephen Colbert,Kahane Cooperman,Lindsay Crystal,Evan Cutler,Rich Dahm,Rich Dahm,Chiara Edmands,Glenn Eichler,Bronwen Epstein,Jon Stewart,Rob Fox,Hank Gallo,Michael McDermott,Jeff Stilson
Writers: Kevin Bleyer,A. Whitney Brown,Stephen Colbert,Rich Dahm,Rich Dahm,Eric Drysdale,Jim Earl,Jon Stewart,David Feldman,Scott Jacobson,Jeff Stilson,Charlie Grandy,Ray James,Rich Blomquist,Josh Lieb,Guy Nicolucci,Daniel J. Goor,Allison Silverman,Aaron Bergeron
Duration: 30
Original run: 1996-07-21
Summary: America's top fake news show.
Votes
Good: 0
Bad: 0
GoodBad
1
Seeders
0
Leechers

Added: 2014-06-27

Size: 515.94 MB

Health: 25%

Hash (Base16): 08303654245B399935B9817665615E82CD4E1C63

Hash (Base32): BAYDMVBELM4ZSNNZQF3GKYK6QLGU4HDD

DownloadBookmark
DOWNLOAD LOCATIONS
http://rarbg.to/torrent/31yc8n2
http://thepiratebay.se/torrent/10437358/The.Daily.Show.2014.06.26.Melissa.McCarthy.720p.HDTV.x264-BATV[r
http://bitsnoop.com/the-daily-show-2014-06-26-melissa-m-q65468641.html
http://isohunt.to/torrent_details/11723732/The-Daily-Show-2014-06-26-Melissa-McCarthy-720p-HDTV-x264-BATV-rarbg
http://torrenthound.to/hash/08303654245b399935b9817665615e82cd4e1c63/torrent-info/The.Daily.Show.2014.06.26.Melissa.McCarthy.720p.HDTV.x264-BATV-rartv
http://www.monova.org/torrent/8188583/TheDailyShow20140626MelissaMcCarthy720pHDTVx264-BATV_rartv_.html
http://www.torlock.com/torrent/3033911/the-daily-show-2014-06-26-melissa-mccarthy-720p-x264-batvbg.html
http://www.torrents.net/torrent/5129129/The.Daily.Show.2014.06.26.Melissa.McCarthy.720p.HDTV.x264-BATV[rarbg]/
http://www.limetorrents.cc/The-Daily-Show-2014-06-26-Melissa-McCarthy-720p-HDTV-x264-BATV[r-torrent-4727291.html
http://fastpiratebay.eu/thepiratebay.se/torrent/10437358/The.Daily.Show.2014.06.26.Melissa.McCarthy.720p.HDTV.x264-BATV[r
http://www.torrentreactor.net/torrents/23853132/The-Daily-Show-2014-06-26-Melissa-McCarthy-720p-HDTV-x264-BATV-rarbg
http://www.seedpeer.me/details/8230126/The.Daily.Show.2014.06.26.Melissa.McCarthy.720p.HDTV.x264-BATV%5Br.html
http://www.torrentdownloads.me/torrent/1658532234/The+Daily+Show+2014+06+26+Melissa+McCarthy+720p+HDTV+x264-BATV%5Brarbg%5D
http://www.torrentfunk.com/torrent/8781483/the-daily-show-2014-06-26-melissa-mccarthy-720p-x264-batvbg.html
http://torrentproject.se/08303654245b399935b9817665615e82cd4e1c63/The-Daily-Show-(2014)-06-26-Melissa-McCarthy-720p-HDTV-x264-BATV-rarbg-torrent.html
^

The.Daily.Show.2014.06.26.Melissa.McCarthy.720p.HDTV.x264-BATV[rartv]

image
[mediainfo]

Video
ID : 1
Format : AVC
Format/Info : Advanced Video Codec
Format profile : High@L4.1
Format settings, CABAC : Yes
Format settings, ReFrames : 5 frames
Codec ID : V_MPEG4/ISO/AVC
Duration : 21mn 28s
Bit rate : 2 907 Kbps
Width : 1 280 pixels
Height : 720 pixels
Display aspect ratio : 16:9
Frame rate mode : Constant
Frame rate : 29.970 fps
Color space : YUV
Chroma subsampling : 4:2:0
Bit depth : 8 bits
Scan type : Progressive
Bits/(Pixel*Frame) : 0.105
Stream size : 447 MiB (87%)
Writing library : x264 core 142 r2431 ac76440
Encoding settings : cabac=1 / ref=5 / deblock=1:0:0 / analyse=0x3:0x113 / me=umh / subme=8 / psy=1 / psy_rd=1.00:0.00 / mixed_ref=1 / me_range=16 / chroma_me=1 / trellis=1 / 8x8dct=1 / cqm=0 / deadzone=21,11 / fast_pskip=1 / chroma_qp_offset=-2 / threads=18 / lookahead_threads=3 / sliced_threads=0 / nr=0 / decimate=1 / interlaced=0 / bluray_compat=0 / constrained_intra=0 / bframes=3 / b_pyramid=2 / b_adapt=2 / b_bias=0 / direct=3 / weightb=1 / open_gop=0 / weightp=2 / keyint=250 / keyint_min=25 / scenecut=40 / intra_refresh=0 / rc_lookahead=50 / rc=crf / mbtree=1 / crf=18.0 / qcomp=0.60 / qpmin=0 / qpmax=69 / qpstep=4 / ip_ratio=1.40 / aq=1:1.00
Language : English
Default : Yes
Forced : No
Matrix coefficients : BT.709

Audio
ID : 2
Format : AC-3
Format/Info : Audio Coding 3
Mode extension : CM (complete main)
Format settings, Endianness : Big
Codec ID : A_AC3
Duration : 21mn 28s
Bit rate mode : Constant
Bit rate : 384 Kbps
Channel(s) : 2 channels
Channel positions : Front: L R
Sampling rate : 48.0 KHz
Bit depth : 16 bits
Compression mode : Lossy
Stream size : 59.0 MiB (11%)
Default : Yes
Forced : No

[/mediainfo]

TRACKERSEEDLEECHDOWNLOADED
udp://tracker.coppersurfer.tk:6969/announce
http://mgtracker.org:2710/announce100
udp://mgtracker.org:2710/announce100
udp://9.rarbg.me:2710/announce
udp://11.rarbg.me:80/announce
udp://10.rarbg.me:80/announce
udp://12.rarbg.me:80/announce
udp://9.rarbg.com:2710/announce
udp://open.demonii.com:1337/announce
udp://tracker.publicbt.com:80/announce
udp://tracker.istole.it:80/announce
udp://tracker.openbittorrent.com:80/announce
udp://tracker.istole.it:6969/announce
http://tracker.istole.it/announce
http://tracker.nwps.ws:6969/announce
http://bt.careland.com.cn:6969/announce
http://tracker.trackerfix.com/announce
http://9.rarbg.com:2710/announce
udp://tracker.ccc.de:80/announce
http://shadowshq.yi.org:6969/announce
http://www.eddie4.nl:6969/announce
http://retracker.perm.ertelecom.ru/announce
http://121.14.98.151:9090/announce
FILESIZE
RARBG.com.txt31 B
The.Daily.Show.2014.06.26.Melissa.McCarthy.720p.HDTV.x264-BATV.mkv515.94 MB
the.daily.show.2014.06.26.melissa.mccarthy.720p.hdtv.x264-batv.nfo799 B

Related results

Date Title Size Files Seeds Leechs Category Health
Video(TV) 159.61 MB 3 2014-06-26 1 0 25%

Login

Account deleting

Are you sure you want to delete your account?

WARNING: This action cannot be undone!!!