Login / Register

Murder.in.the.First.S01E06.720p.HDTV.X264-DIMENSION[rartv]

Category: Video
Type: TV
Movie Title: Murder in the First
Season: 1
Episode: 6
Episode Title: Punch Drunk
Release date: 2014-07-13
Cast: Ian Anthony Dale,Currie Graham,Kathleen Robertson,Charles Baker,Jamie McShane,Aswad Ali,Steven Weber,Tom Felton,Matthew Alan,James Anthony Cotton,Jon Polito,Raphael Sbarge,Richard Schiff,Mark DeSalvo,Meagen Fay,Marco Sanchez,Alan Blumenfeld,James Cromwell
Genre: Crime, Drama, Mystery
External Links: IMDB
Directors: Allison Anders,Ben Bolt,Bethany Rooney,Rick Wallace,Michael Mayers,Thomas Schlamme,Reginald Hudlin,Jesse Bochco
Producers: Steven Bochco,Jonathan Abrahams,Alison Cross,John Mabry,Thomas Schlamme,Caroline James,Robert Munic,Jesse Bochco,Brian Nelson,Rebecca Moline,Daniele Nathanson,Eric Lodal
Writers: Steven Bochco,Jonathan Abrahams,Alison Cross,Robert Munic,David Maples,Brian Nelson,Eric Lodal
Duration: 60
Original run: 2014-06-08
Summary: A single murder case is dissected from the committing of the crime through to the investigation, arrest and trial.
Votes
Good: 0
Bad: 0
GoodBad
1
Seeders
1
Leechers

Added: 2014-07-15

Size: 853.07 MB

Health: 25%

Hash (Base16): 45468DCBF1CC86F117DD6DD268A44ED0C518ADA4

Hash (Base32): IVDI3S7RZSDPCF65NXJGRJCO2DCRRLNE

DownloadBookmark
^

Murder.in.the.First.S01E06.720p.HDTV.X264-DIMENSION[rartv]

image
[mediainfo]

Video
ID : 1
Format : AVC
Format/Info : Advanced Video Codec
Format profile : High@L4.1
Format settings, CABAC : Yes
Format settings, ReFrames : 8 frames
Codec ID : V_MPEG4/ISO/AVC
Duration : 41mn 31s
Bit rate : 2 366 Kbps
Width : 1 280 pixels
Height : 720 pixels
Display aspect ratio : 16:9
Frame rate mode : Constant
Frame rate : 23.976 fps
Color space : YUV
Chroma subsampling : 4:2:0
Bit depth : 8 bits
Scan type : Progressive
Bits/(Pixel*Frame) : 0.107
Stream size : 703 MiB (82%)
Writing library : x264 core 142 r2431 ac76440
Encoding settings : cabac=1 / ref=8 / deblock=1:-2:-2 / analyse=0x3:0x113 / me=umh / subme=9 / psy=1 / psy_rd=1.00:0.00 / mixed_ref=1 / me_range=24 / chroma_me=1 / trellis=1 / 8x8dct=1 / cqm=0 / deadzone=21,11 / fast_pskip=0 / chroma_qp_offset=-2 / threads=18 / lookahead_threads=2 / sliced_threads=0 / nr=0 / decimate=1 / interlaced=0 / bluray_compat=0 / constrained_intra=0 / bframes=5 / b_pyramid=2 / b_adapt=2 / b_bias=0 / direct=3 / weightb=1 / open_gop=0 / weightp=2 / keyint=250 / keyint_min=23 / scenecut=40 / intra_refresh=0 / rc_lookahead=50 / rc=crf / mbtree=1 / crf=18.0 / qcomp=0.60 / qpmin=0 / qpmax=69 / qpstep=4 / ip_ratio=1.40 / aq=1:1.00
Language : English
Default : No
Forced : No

Audio
ID : 2
Format : AC-3
Format/Info : Audio Coding 3
Mode extension : CM (complete main)
Format settings, Endianness : Big
Codec ID : A_AC3
Duration : 41mn 32s
Bit rate mode : Constant
Bit rate : 448 Kbps
Channel(s) : 6 channels
Channel positions : Front: L C R, Side: L R, LFE
Sampling rate : 48.0 KHz
Bit depth : 16 bits
Compression mode : Lossy
Stream size : 133 MiB (16%)
Default : Yes
Forced : No

[/mediainfo]

TRACKERSEEDLEECHDOWNLOADED
udp://9.rarbg.me:2710/announce
udp://11.rarbg.me:80/announce
udp://10.rarbg.me:80/announce
udp://12.rarbg.me:80/announce
udp://9.rarbg.com:2710/announce
udp://open.demonii.com:1337/announce
udp://tracker.publicbt.com:80/announce
udp://tracker.istole.it:80/announce
udp://tracker.openbittorrent.com:80/announce
udp://tracker.istole.it:6969/announce
http://tracker.istole.it/announce
http://tracker.trackerfix.com/announce
udp://tracker.ccc.de:80/announce
http://tracker.thepiratebay.org/announce
udp://tracker-ccc.de:6969/announce
FILESIZE
Murder.in.the.First.S01E06.720p.HDTV.X264-DIMENSION.mkv853.07 MB
RARBG.com.txt31 B
murder.in.the.first.106.720p-dimension.nfo277 B

Related results

Date Title Size Files Seeds Leechs Category Health
Video(TV) 867.72 MB 3 2014-07-07 1 0 25%
Video(TV) 895.75 MB 3 2014-06-30 1 0 25%
Video(TV) 817.93 MB 3 2014-06-23 1 0 25%
Video(TV) 793.44 MB 3 2014-06-16 1 0 25%
Video(TV) 1003.52 MB 3 2014-06-09 1 0 25%
Video(TV) 711.5 MB 3 2014-07-21 1 0 25%
Video(TV) 866.96 MB 3 2014-07-28 1 0 25%
Video(TV) 830.85 MB 3 2014-08-11 0 1 25%

Login

Account deleting

Are you sure you want to delete your account?

WARNING: This action cannot be undone!!!