Login / Register

Murder.in.the.First.S01E06.HDTV.x264-LOL[rartv]

Category: Video
Type: TV
Movie Title: Murder in the First
Season: 1
Episode: 6
Episode Title: Punch Drunk
Release date: 2014-07-13
Cast: Ian Anthony Dale,Currie Graham,Kathleen Robertson,Charles Baker,Jamie McShane,Aswad Ali,Steven Weber,Tom Felton,Matthew Alan,James Anthony Cotton,Jon Polito,Raphael Sbarge,Richard Schiff,Mark DeSalvo,Meagen Fay,Marco Sanchez,Alan Blumenfeld,James Cromwell
Genre: Crime, Drama, Mystery
External Links: IMDB
Directors: Allison Anders,Ben Bolt,Bethany Rooney,Rick Wallace,Michael Mayers,Thomas Schlamme,Reginald Hudlin,Jesse Bochco
Producers: Steven Bochco,Jonathan Abrahams,Alison Cross,John Mabry,Thomas Schlamme,Caroline James,Robert Munic,Jesse Bochco,Brian Nelson,Rebecca Moline,Daniele Nathanson,Eric Lodal
Writers: Steven Bochco,Jonathan Abrahams,Alison Cross,Robert Munic,David Maples,Brian Nelson,Eric Lodal
Duration: 60
Original run: 2014-06-08
IMDB rating: 7.2/10
Summary: A single murder case is dissected from the committing of the crime through to the investigation, arrest and trial.
Votes
Good: 0
Bad: 0
GoodBad
0
Seeders
1
Leechers

Added: 2014-07-15

Size: 226.6 MB

Health: 25%

Hash (Base16): 6A86F0CC19B470D9D189C8866E6DDECBA89567C3

Hash (Base32): NKDPBTAZWRYNTUMJZCDG43O6ZOUJKZ6D

DownloadBookmark
^

Murder.in.the.First.S01E06.HDTV.x264-LOL[rartv]

image
[mediainfo]

Video
ID : 1
Format : AVC
Format/Info : Advanced Video Codec
Format profile : [email protected]
Format settings, CABAC : Yes
Format settings, ReFrames : 5 frames
Codec ID : avc1
Codec ID/Info : Advanced Video Coding
Duration : 41mn 31s
Bit rate : 642 Kbps
Maximum bit rate : 2 285 Kbps
Width : 720 pixels
Height : 404 pixels
Display aspect ratio : 16:9
Frame rate mode : Constant
Frame rate : 23.976 fps
Color space : YUV
Chroma subsampling : 4:2:0
Bit depth : 8 bits
Scan type : Progressive
Bits/(Pixel*Frame) : 0.092
Stream size : 191 MiB (84%)
Writing library : x264 core 142 r2431 ac76440
Encoding settings : cabac=1 / ref=5 / deblock=1:1:1 / analyse=0x3:0x133 / me=umh / subme=9 / psy=1 / psy_rd=1.00:0.00 / mixed_ref=1 / me_range=16 / chroma_me=1 / trellis=2 / 8x8dct=1 / cqm=0 / deadzone=21,11 / fast_pskip=1 / chroma_qp_offset=-2 / threads=18 / lookahead_threads=1 / sliced_threads=0 / nr=0 / decimate=1 / interlaced=0 / bluray_compat=0 / constrained_intra=0 / bframes=3 / b_pyramid=2 / b_adapt=2 / b_bias=0 / direct=3 / weightb=1 / open_gop=0 / weightp=2 / keyint=250 / keyint_min=23 / scenecut=40 / intra_refresh=0 / rc_lookahead=60 / rc=crf / mbtree=1 / crf=20.0 / qcomp=0.60 / qpmin=0 / qpmax=69 / qpstep=4 / ip_ratio=1.40 / aq=1:1.00
Encoded date : UTC 2014-07-14 17:59:27
Tagged date : UTC 2014-07-14 20:01:48
Matrix coefficients : BT.709

Audio
ID : 2
Format : AAC
Format/Info : Advanced Audio Codec
Format profile : LC
Codec ID : 40
Duration : 41mn 32s
Bit rate mode : Variable
Bit rate : 117 Kbps
Maximum bit rate : 149 Kbps
Channel(s) : 2 channels
Channel positions : Front: L R
Sampling rate : 48.0 KHz
Compression mode : Lossy
Stream size : 34.7 MiB (15%)
Encoded date : UTC 2014-07-14 20:01:47
Tagged date : UTC 2014-07-14 20:01:48

[/mediainfo]

TRACKERSEEDLEECHDOWNLOADED
udp://9.rarbg.me:2710/announce
udp://11.rarbg.me:80/announce
udp://10.rarbg.me:80/announce
udp://12.rarbg.me:80/announce
udp://9.rarbg.com:2710/announce
udp://open.demonii.com:1337/announce
udp://tracker.publicbt.com:80/announce
udp://tracker.istole.it:80/announce
udp://tracker.openbittorrent.com:80/announce
udp://tracker.istole.it:6969/announce
http://tracker.istole.it/announce
http://tracker.trackerfix.com/announce
udp://tracker.ccc.de:80/announce
http://tracker.thepiratebay.org/announce
udp://tracker-ccc.de:6969/announce
FILESIZE
RARBG.com.txt31 B
murder.in.the.first.106.hdtv-lol.mp4226.6 MB
murder.in.the.first.106.hdtv-lol.nfo4.26 KB

Related results

Date Title Size Files Seeds Leechs Category Health
Video(TV) 1.62 GB 2 2014-07-07 1 0 25%
Video(TV) 1003.52 MB 3 2014-06-09 1 3 25%
Video(TV) 711.5 MB 3 2014-07-21 1 0 25%
Video(TV) 866.96 MB 3 2014-07-28 0 1 25%
Video(TV) 219.47 MB 3 2014-08-11 1 0 25%

Login

Account deleting

Are you sure you want to delete your account?

WARNING: This action cannot be undone!!!