Login / Register

MasterChef.US.S05E07.720p.HDTV.X264-DIMENSION[rartv]

Category: Video
Type: TV
Movie Title: Masterchef
Season: 5
Episode: 7
Episode Title: Top 15 Compete
Release date: 2014-07-06
Cast: Sheena Zadeh,Whitney Webster,Stevie Cannone,Anthony Carbone,Emme Ribeiro,Charmaine Cheung,Tamar Poyser,Michael Tomaiolo,Jake Gandolfo,Whitney Miller,Tracy Nailor,Chris Villa,Barbara Estevez,Jenna Hamiter,Steven Kowalczuk,Darryl Pierce,Leigh Glatt
Genre: Reality-TV
External Links: IMDB
Director: Brian Smith
Producers: Dan Sacks,Kevin Mendonca,Jonathan Bourne,Ben Adler,Robin Ashbrook,Eden Gaha,Suzy Beck,Thomas J. Rasera,Greg Gerosky,Sandra J. Ciccone,Franc Roddam,J.D. Roth,Andrea Masamitsu,Gordon Ramsay,Michael Carroll,JoAnn Cianciulli,Claudine Magre,Annie Imhoff
Writers: Ben Adler,Robin Ashbrook,Franc Roddam,Gordon Ramsay,Adeline Ramage Rooney,Howard T. Owens,Pat Llewellyn
Duration: 45
Original run: 2010-07-26
Summary: A nationwide search for the best home cooks in America. One of 50 hopefuls will become a culinary star and America's first-ever "Masterchef."
Votes
Good: 0
Bad: 0
GoodBad
0
Seeders
1
Leechers

Added: 2014-07-08

Size: 1.65 GB

Health: 25%

Hash (Base16): D3738D48075DE92767C83AEDC58D7158B0E1FE5E

Hash (Base32): 2NZY2SAHLXUSOZ6IHLW4LDLRLCYOD7S6

DownloadBookmark
^

MasterChef.US.S05E07.720p.HDTV.X264-DIMENSION[rartv]

image
[mediainfo]

Video
ID : 1
Format : AVC
Format/Info : Advanced Video Codec
Format profile : High@L4.1
Format settings, CABAC : Yes
Format settings, ReFrames : 5 frames
Codec ID : V_MPEG4/ISO/AVC
Duration : 42mn 1s
Bit rate : 5 063 Kbps
Width : 1 280 pixels
Height : 720 pixels
Display aspect ratio : 16:9
Frame rate mode : Constant
Frame rate : 23.976 fps
Color space : YUV
Chroma subsampling : 4:2:0
Bit depth : 8 bits
Scan type : Progressive
Bits/(Pixel*Frame) : 0.229
Stream size : 1.49 GiB (90%)
Writing library : x264 core 142 r2431 ac76440
Encoding settings : cabac=1 / ref=5 / deblock=1:0:0 / analyse=0x3:0x113 / me=umh / subme=8 / psy=1 / psy_rd=1.00:0.00 / mixed_ref=1 / me_range=16 / chroma_me=1 / trellis=1 / 8x8dct=1 / cqm=0 / deadzone=21,11 / fast_pskip=1 / chroma_qp_offset=-2 / threads=18 / lookahead_threads=4 / sliced_threads=0 / nr=0 / decimate=1 / interlaced=0 / bluray_compat=0 / constrained_intra=0 / bframes=5 / b_pyramid=2 / b_adapt=2 / b_bias=0 / direct=3 / weightb=1 / open_gop=0 / weightp=2 / keyint=250 / keyint_min=23 / scenecut=40 / intra_refresh=0 / rc_lookahead=50 / rc=crf / mbtree=1 / crf=20.0 / qcomp=0.60 / qpmin=0 / qpmax=69 / qpstep=4 / ip_ratio=1.40 / aq=1:1.00
Default : No
Forced : No

Audio
ID : 2
Format : AC-3
Format/Info : Audio Coding 3
Mode extension : CM (complete main)
Format settings, Endianness : Big
Codec ID : A_AC3
Duration : 42mn 1s
Bit rate mode : Constant
Bit rate : 448 Kbps
Channel(s) : 6 channels
Channel positions : Front: L C R, Side: L R, LFE
Sampling rate : 48.0 KHz
Bit depth : 16 bits
Compression mode : Lossy
Delay relative to video : -83ms
Stream size : 135 MiB (8%)
Default : Yes
Forced : No

[/mediainfo]

TRACKERSEEDLEECHDOWNLOADED
udp://9.rarbg.me:2710/announce
udp://11.rarbg.me:80/announce
udp://10.rarbg.me:80/announce
udp://12.rarbg.me:80/announce
udp://9.rarbg.com:2710/announce
udp://open.demonii.com:1337/announce
udp://tracker.publicbt.com:80/announce
udp://tracker.istole.it:80/announce
udp://tracker.openbittorrent.com:80/announce
udp://tracker.istole.it:6969/announce
http://tracker.istole.it/announce
http://tracker.leechers-paradise.org:6969/announce
http://tracker.trackerfix.com/announce
http://9.rarbg.com:2710/announce
udp://tracker.ccc.de:80/announce
http://tracker.thepiratebay.org/announce
http://shadowshq.eddie4.nl:6969/announce
http://shadowshq.yi.org:6969/announce
http://www.eddie4.nl:6969/announce
http://eddie4.nl:6969/announce
udp://tracker-ccc.de:6969/announce
FILESIZE
MasterChef.US.S05E07.720p.HDTV.X264-DIMENSION.mkv1.65 GB
RARBG.com.txt31 B
masterchef.us.507.720p-dimension.nfo256 B

Related results

Date Title Size Files Seeds Leechs Category Health
Video(TV) 1.53 GB 4 2014-07-14 0 1 25%
Video(TV) 1.21 GB 3 2014-06-23 0 1 25%
Video(TV) 1.35 GB 4 2014-06-16 0 1 25%
Video(TV) 1.29 GB 4 2014-06-09 1 0 25%
Video(TV) 1.29 GB 4 2014-06-02 1 0 25%
Video(TV) 1013.76 MB 2 2014-07-21 0 1 25%
Video(TV) 1.67 GB 4 2014-08-04 0 1 25%
Video(TV) 1.76 GB 2 2014-08-11 0 1 25%
Video(TV) 1.58 GB 3 2014-08-18 0 1 25%

Login

Account deleting

Are you sure you want to delete your account?

WARNING: This action cannot be undone!!!