Login / Register

MasterChef.US.S05E08.HDTV.x264-LOL[rartv]

Category: Video
Type: TV
Movie Title: Masterchef
Season: 5
Episode: 8
Episode Title: Top 14 Compete
Release date: 2014-07-13
Cast: Sheena Zadeh,Whitney Webster,Stevie Cannone,Anthony Carbone,Emme Ribeiro,Charmaine Cheung,Tamar Poyser,Michael Tomaiolo,Jake Gandolfo,Whitney Miller,Tracy Nailor,Chris Villa,Barbara Estevez,Jenna Hamiter,Steven Kowalczuk,Darryl Pierce,Leigh Glatt
Genre: Reality-TV
External Links: IMDB
Director: Brian Smith
Producers: Dan Sacks,Kevin Mendonca,Jonathan Bourne,Ben Adler,Robin Ashbrook,Eden Gaha,Suzy Beck,Thomas J. Rasera,Greg Gerosky,Sandra J. Ciccone,Franc Roddam,J.D. Roth,Andrea Masamitsu,Gordon Ramsay,Michael Carroll,JoAnn Cianciulli,Claudine Magre,Annie Imhoff
Writers: Ben Adler,Robin Ashbrook,Franc Roddam,Gordon Ramsay,Adeline Ramage Rooney,Howard T. Owens,Pat Llewellyn
Duration: 45
Original run: 2010-07-26
Summary: A nationwide search for the best home cooks in America. One of 50 hopefuls will become a culinary star and America's first-ever "Masterchef."
Votes
Good: 0
Bad: 0
GoodBad
0
Seeders
1
Leechers

Added: 2014-07-15

Size: 354.42 MB

Health: 25%

Hash (Base16): B84D44010C84F66C6E4072A4C1AED93D5205F0D1

Hash (Base32): XBGUIAIMQT3GY3SAOKSMDLWZHVJAL4GR

DownloadBookmark
^

MasterChef.US.S05E08.HDTV.x264-LOL[rartv]

image
[mediainfo]

Video
ID : 1
Format : AVC
Format/Info : Advanced Video Codec
Format profile : [email protected]
Format settings, CABAC : Yes
Format settings, ReFrames : 5 frames
Codec ID : avc1
Codec ID/Info : Advanced Video Coding
Duration : 42mn 1s
Bit rate : 1 048 Kbps
Maximum bit rate : 3 623 Kbps
Width : 720 pixels
Height : 404 pixels
Display aspect ratio : 16:9
Frame rate mode : Constant
Frame rate : 23.976 fps
Color space : YUV
Chroma subsampling : 4:2:0
Bit depth : 8 bits
Scan type : Progressive
Bits/(Pixel*Frame) : 0.150
Stream size : 315 MiB (89%)
Writing library : x264 core 142 r2431 ac76440
Encoding settings : cabac=1 / ref=5 / deblock=1:0:0 / analyse=0x3:0x113 / me=umh / subme=8 / psy=1 / psy_rd=1.00:0.00 / mixed_ref=1 / me_range=16 / chroma_me=1 / trellis=1 / 8x8dct=1 / cqm=0 / deadzone=21,11 / fast_pskip=1 / chroma_qp_offset=-2 / threads=18 / lookahead_threads=3 / sliced_threads=0 / nr=0 / decimate=1 / interlaced=0 / bluray_compat=0 / constrained_intra=0 / bframes=3 / b_pyramid=2 / b_adapt=2 / b_bias=0 / direct=3 / weightb=1 / open_gop=0 / weightp=2 / keyint=250 / keyint_min=23 / scenecut=40 / intra_refresh=0 / rc_lookahead=50 / rc=crf / mbtree=1 / crf=22.0 / qcomp=0.60 / qpmin=0 / qpmax=69 / qpstep=4 / ip_ratio=1.40 / aq=1:1.00
Encoded date : UTC 2014-07-15 02:17:42
Tagged date : UTC 2014-07-15 02:17:44
Matrix coefficients : BT.709

Audio
ID : 2
Format : AAC
Format/Info : Advanced Audio Codec
Format profile : LC
Codec ID : 40
Duration : 42mn 1s
Bit rate mode : Variable
Bit rate : 127 Kbps
Maximum bit rate : 151 Kbps
Channel(s) : 2 channels
Channel positions : Front: L R
Sampling rate : 48.0 KHz
Compression mode : Lossy
Stream size : 38.1 MiB (11%)
Encoded date : UTC 2014-07-15 02:17:44
Tagged date : UTC 2014-07-15 02:17:44

[/mediainfo]

TRACKERSEEDLEECHDOWNLOADED
http://mgtracker.org:2710/announce
udp://9.rarbg.me:2710/announce
udp://11.rarbg.me:80/announce
udp://10.rarbg.me:80/announce
udp://12.rarbg.me:80/announce
udp://9.rarbg.com:2710/announce
udp://open.demonii.com:1337/announce
udp://tracker.publicbt.com:80/announce
udp://tracker.istole.it:80/announce
udp://tracker.openbittorrent.com:80/announce
udp://tracker.istole.it:6969/announce
http://tracker.trackerfix.com/announce
udp://tracker.ccc.de:80/announce
http://tracker.thepiratebay.org/announce
http://shadowshq.yi.org:6969/announce
http://www.eddie4.nl:6969/announce
http://eddie4.nl:6969/announce
udp://tracker-ccc.de:6969/announce
FILESIZE
RARBG.com.txt31 B
masterchef.us.508.hdtv-lol.nfo4.26 KB
masterchef.us.s05e08.hdtv.x264-lol.mp4354.41 MB

Related results

Date Title Size Files Seeds Leechs Category Health
Video(TV) 335.55 MB 3 2014-07-06 1 0 25%
Video(TV) 366.36 MB 3 2014-07-01 1 0 25%
Video(TV) 364.54 MB 3 2014-06-30 1 0 25%
Video(TV) 362.25 MB 3 2014-07-21 1 0 25%
Video(TV) 566.21 MB 3 2014-07-26 0 1 25%

Login

Account deleting

Are you sure you want to delete your account?

WARNING: This action cannot be undone!!!