Login / Register

Covert.Affairs.S05E03.720p.HDTV.X264-DIMENSION[rartv]

Category: Video
Type: TV
Movie Title: Covert Affairs
Season: 5
Episode: 3
Cast: Lauren Holly,Anna Chlumsky,Peter Gallagher,Peter Stormare,Oded Fehr,Eriq La Salle,Piper Perabo,Julian Acosta,Nick Alachiotis,David Andrews,Yancey Arias,Brad Austin,Shaun Austin-Olsen,Eion Bailey,Liane Balaban,Matt Baram,Milton Barnes,Kate Trotter
Genre: Action, Crime, Drama
External Links: IMDB
Directors: Renny Harlin,Tim Matheson,Jamie Barber,Jamie Barber,Andrew Bernstein,Alex Chapple,Nick Copus,Félix Enríquez Alcalá,J. Miller Tobin,John Fawcett,John Fawcett,Omar Madha,Ken Girotti,Stephen Kay,Rod Hardy,John T. Kretchmer,Elodie Keene,Jonathan Glassner
Producers: Piper Perabo,Hank Chilton,Diego Conejero,James D. Parriott,Stefano Biraghi,Stephen Kay,Sean Ryerson,Jonathan Glassner,Thania St. John,Elan Dassani,Alejandro Levi,Norman Morrill,Erhan Ozogul,Doug Liman,Tamara Becher,B.E. Sharp,Henry Alonso Myers
Writers: Hank Chilton,James D. Parriott,Steve Harper,Thania St. John,Norman Morrill,Tamara Becher,Henry Alonso Myers,Erica Shelton,Stephen Hootstein,Donald Joh,Zak Schwartz,Meredith Lavender,Dana Calvo,Matt Corman,Chris Ord,Matthew Lau,Alex Berger,Brett Conrad
Duration: 60
Summary: A young CIA operative/trainee, Annie Walker, is sent into the field to work for the DPD (Domestic Protection Division). August Anderson is a blind tech operative, and is Walker's guide in her new life in the CIA. Walker's cover story is that she works at the Smithsonian Museum.
Votes
Good: 0
Bad: 0
GoodBad
0
Seeders
1
Leechers

Added: 2014-07-09

Size: 1.1 GB

Health: 25%

Hash (Base16): 04BA48AA251E806DDA2B688B760CF826D23D2508

Hash (Base32): AS5ERKRFD2AG3WRLNCFXMDHYE3JD2JII

DownloadBookmark
^

Covert.Affairs.S05E03.720p.HDTV.X264-DIMENSION[rartv]

image
[mediainfo]

Video
ID : 1
Format : AVC
Format/Info : Advanced Video Codec
Format profile : High@L4.1
Format settings, CABAC : Yes
Format settings, ReFrames : 5 frames
Codec ID : V_MPEG4/ISO/AVC
Duration : 42mn 36s
Bit rate : 3 254 Kbps
Width : 1 280 pixels
Height : 720 pixels
Display aspect ratio : 16:9
Frame rate mode : Constant
Frame rate : 23.976 fps
Color space : YUV
Chroma subsampling : 4:2:0
Bit depth : 8 bits
Scan type : Progressive
Bits/(Pixel*Frame) : 0.147
Stream size : 992 MiB (88%)
Writing library : x264 core 142 r2431 ac76440
Encoding settings : cabac=1 / ref=5 / deblock=1:-1:-1 / analyse=0x3:0x113 / me=umh / subme=8 / psy=1 / psy_rd=1.00:0.00 / mixed_ref=1 / me_range=16 / chroma_me=1 / trellis=1 / 8x8dct=1 / cqm=0 / deadzone=21,11 / fast_pskip=1 / chroma_qp_offset=-2 / threads=18 / lookahead_threads=4 / sliced_threads=0 / nr=0 / decimate=1 / interlaced=0 / bluray_compat=0 / constrained_intra=0 / bframes=5 / b_pyramid=2 / b_adapt=2 / b_bias=0 / direct=3 / weightb=1 / open_gop=0 / weightp=2 / keyint=250 / keyint_min=23 / scenecut=40 / intra_refresh=0 / rc_lookahead=50 / rc=crf / mbtree=1 / crf=18.0 / qcomp=0.60 / qpmin=0 / qpmax=69 / qpstep=4 / ip_ratio=1.40 / aq=1:1.00
Default : No
Forced : No

Audio
ID : 2
Format : AC-3
Format/Info : Audio Coding 3
Mode extension : CM (complete main)
Format settings, Endianness : Big
Codec ID : A_AC3
Duration : 42mn 36s
Bit rate mode : Constant
Bit rate : 384 Kbps
Channel(s) : 6 channels
Channel positions : Front: L C R, Side: L R, LFE
Sampling rate : 48.0 KHz
Bit depth : 16 bits
Compression mode : Lossy
Delay relative to video : -83ms
Stream size : 117 MiB (10%)
Default : Yes
Forced : No

[/mediainfo]

TRACKERSEEDLEECHDOWNLOADED
http://mgtracker.org:2710/announce
udp://9.rarbg.me:2710/announce
udp://11.rarbg.me:80/announce
udp://10.rarbg.me:80/announce
udp://12.rarbg.me:80/announce
udp://9.rarbg.com:2710/announce
udp://open.demonii.com:1337/announce
udp://tracker.publicbt.com:80/announce
udp://tracker.istole.it:80/announce
udp://tracker.openbittorrent.com:80/announce
udp://tracker.istole.it:6969/announce
http://tracker.istole.it/announce
http://tracker.leechers-paradise.org:6969/announce
http://bt.careland.com.cn:6969/announce
http://bttracker.crunchbanglinux.org:6969/announce
http://tracker.best-torrents.net:6969/announce
http://tracker.trackerfix.com/announce
udp://tracker.ccc.de:80/announce
http://tracker.thepiratebay.org/announce
http://shadowshq.eddie4.nl:6969/announce
http://shadowshq.yi.org:6969/announce
http://www.eddie4.nl:6969/announce
http://eddie4.nl:6969/announce
http://server2.9sheng.cn:6969/announce
http://121.14.98.151:9090/announce
udp://tracker-ccc.de:6969/announce
FILESIZE
Covert.Affairs.S05E03.720p.HDTV.X264-DIMENSION.mkv1.1 GB
RARBG.com.txt31 B
covert.affairs.503.720p-dimension.nfo349 B

Related results

Date Title Size Files Seeds Leechs Category Health
Video(TV) 1.32 GB 3 2014-07-01 1 0 25%
Video(TV) 1.29 GB 3 2014-06-24 0 2 25%

Login

Account deleting

Are you sure you want to delete your account?

WARNING: This action cannot be undone!!!