Login / Register

Covert.Affairs.S05E03.HDTV.x264-LOL[rartv]

Category: Video
Type: TV
Movie Title: Covert Affairs
Season: 5
Episode: 3
Episode Title: Unseen Power of the Picket Fence
Release date: 2014-07-07
Cast: Lauren Holly,Anna Chlumsky,Peter Gallagher,Peter Stormare,Oded Fehr,Eriq La Salle,Piper Perabo,Julian Acosta,Nick Alachiotis,David Andrews,Yancey Arias,Brad Austin,Shaun Austin-Olsen,Eion Bailey,Liane Balaban,Matt Baram,Milton Barnes,Kate Trotter
Genre: Action, Crime, Drama
External Links: IMDB
Directors: Renny Harlin,Tim Matheson,Jamie Barber,Jamie Barber,Andrew Bernstein,Alex Chapple,Nick Copus,Félix Enríquez Alcalá,J. Miller Tobin,John Fawcett,John Fawcett,Omar Madha,Ken Girotti,Stephen Kay,Rod Hardy,John T. Kretchmer,Elodie Keene,Jonathan Glassner
Producers: Piper Perabo,Hank Chilton,Diego Conejero,James D. Parriott,Stefano Biraghi,Stephen Kay,Sean Ryerson,Jonathan Glassner,Thania St. John,Elan Dassani,Alejandro Levi,Norman Morrill,Erhan Ozogul,Doug Liman,Tamara Becher,B.E. Sharp,Henry Alonso Myers
Writers: Hank Chilton,James D. Parriott,Steve Harper,Thania St. John,Norman Morrill,Tamara Becher,Henry Alonso Myers,Erica Shelton,Stephen Hootstein,Donald Joh,Zak Schwartz,Meredith Lavender,Dana Calvo,Matt Corman,Chris Ord,Matthew Lau,Alex Berger,Brett Conrad
Duration: 60
Original run: 2010-07-12
IMDB rating: 7.4 (19,246 votes)
Summary: A young CIA operative/trainee, Annie Walker, is sent into the field to work for the DPD (Domestic Protection Division). August Anderson is a blind tech operative, and is Walker's guide in her new life in the CIA. Walker's cover story is that she works at the Smithsonian Museum.
Votes
Good: 0
Bad: 0
GoodBad
0
Seeders
3
Leechers

Added: 2014-07-09

Size: 372.54 MB

Health: 25%

Hash (Base16): 6851230B7356AF55499B711C9CE020EA4D112F72

Hash (Base32): NBISGC3TK2XVKSM3OEOJZYBA5JGRCL3S

DownloadBookmark
^

Covert.Affairs.S05E03.HDTV.x264-LOL[rartv]

image
[mediainfo]

Video
ID : 1
Format : AVC
Format/Info : Advanced Video Codec
Format profile : High@L3.1
Format settings, CABAC : Yes
Format settings, ReFrames : 5 frames
Codec ID : avc1
Codec ID/Info : Advanced Video Coding
Duration : 42mn 36s
Bit rate : 1 092 Kbps
Maximum bit rate : 4 369 Kbps
Width : 720 pixels
Height : 404 pixels
Display aspect ratio : 16:9
Frame rate mode : Constant
Frame rate : 23.976 fps
Color space : YUV
Chroma subsampling : 4:2:0
Bit depth : 8 bits
Scan type : Progressive
Bits/(Pixel*Frame) : 0.157
Stream size : 333 MiB (89%)
Writing library : x264 core 142 r2431 ac76440
Encoding settings : cabac=1 / ref=5 / deblock=1:1:1 / analyse=0x3:0x113 / me=umh / subme=8 / psy=1 / psy_rd=1.00:0.00 / mixed_ref=1 / me_range=16 / chroma_me=1 / trellis=1 / 8x8dct=1 / cqm=0 / deadzone=21,11 / fast_pskip=1 / chroma_qp_offset=-2 / threads=18 / lookahead_threads=3 / sliced_threads=0 / nr=0 / decimate=1 / interlaced=0 / bluray_compat=0 / constrained_intra=0 / bframes=5 / b_pyramid=2 / b_adapt=2 / b_bias=0 / direct=3 / weightb=1 / open_gop=0 / weightp=2 / keyint=250 / keyint_min=23 / scenecut=40 / intra_refresh=0 / rc_lookahead=50 / rc=crf / mbtree=1 / crf=19.0 / qcomp=0.60 / qpmin=0 / qpmax=69 / qpstep=4 / ip_ratio=1.40 / aq=1:1.00
Encoded date : UTC 2014-07-09 04:16:25
Tagged date : UTC 2014-07-09 04:16:28
Matrix coefficients : BT.709

Audio
ID : 2
Format : AAC
Format/Info : Advanced Audio Codec
Format profile : LC
Codec ID : 40
Duration : 42mn 36s
Bit rate mode : Variable
Bit rate : 126 Kbps
Maximum bit rate : 151 Kbps
Channel(s) : 2 channels
Channel positions : Front: L R
Sampling rate : 48.0 KHz
Compression mode : Lossy
Stream size : 38.3 MiB (10%)
Encoded date : UTC 2014-07-09 04:16:28
Tagged date : UTC 2014-07-09 04:16:28

[/mediainfo]

TRACKERSEEDLEECHDOWNLOADED
udp://tracker.coppersurfer.tk:6969/announce0243730
udp://9.rarbg.me:2710/announce
udp://11.rarbg.me:80/announce
udp://10.rarbg.me:80/announce
udp://12.rarbg.me:80/announce
udp://9.rarbg.com:2710/announce
udp://open.demonii.com:1337/announce
udp://tracker.publicbt.com:80/announce
udp://tracker.istole.it:80/announce
udp://tracker.openbittorrent.com:80/announce
udp://tracker.istole.it:6969/announce
http://tracker.istole.it/announce
http://tracker.trackerfix.com/announce
udp://tracker.ccc.de:80/announce
udp://9.rarbg.to:2710/announce
http://tracker.thepiratebay.org/announce
http://eddie4.nl:6969/announce
udp://tracker-ccc.de:6969/announce
FILESIZE
RARBG.com.txt31 B
covert.affairs.503.hdtv-lol.mp4372.54 MB
covert.affairs.503.hdtv-lol.nfo4.26 KB

Related results

Date Title Size Files Seeds Leechs Category Health
Video(TV) 1.1 GB 3 2014-07-08 0 1 25%
Video(TV) 1.32 GB 3 2014-07-01 1 0 25%
Video(TV) 1.29 GB 3 2014-06-24 0 3 25%
Video(TV) 1.25 GB 3 2014-07-15 1 0 25%
Video(TV) 1.43 GB 3 2014-07-22 1 0 25%
Video(TV) 1.23 GB 3 2014-08-12 0 1 25%
Video(TV) 314.9 MB 3 2014-08-19 0 1 25%
Video(TV) 336.17 MB 3 2014-11-13 1 1 25%
Video(TV) 1.24 GB 3 2014-12-04 1 0 25%

Login

Account deleting

Are you sure you want to delete your account?

WARNING: This action cannot be undone!!!