Login / Register
720p

The.Zero.Theorem.2013.720p.WEB-DL.XviD.AC3-RARBG

Category: Video
Type: Movies
Language: English
Subtitles: English
Movie Title: The Zero Theorem
Detected quality: 720p
Release date: 2014-09-18
Cast: Christoph Waltz,Mélanie Thierry,David Thewlis,Lucas Hedges,Matt Damon,Tilda Swinton,Margarita Doyle,Madison Lygo,Peter Stormare,Gwendoline Christie,Sanjeev Bhaskar,Ben Whishaw,Emil Hostina,Lily Cole,Ray Cooper,Rupert Friend,Dan Astileanu,Ingrid Bisu
Genre: Drama, Fantasy, Sci-Fi
External Links: IMDB
Director: Terry Gilliam
Producers: Mark Bakunas,Chris Curling,Christoph Waltz,Amy Gilliam,Dean Zanuck,Phil Robertson,Nicolas Chartier,Andreea Stanculeanu,Patrick Newall,Patricia Poienaru,Zev Foreman,Dominic Rustam
Writers: Terry Gilliam,Pat Rushin
Duration: 107
IMDB rating: 6.2 (19,870 votes)
Summary: A computer hacker whose goal is to discover the reason for human existence continually finds his work interrupted thanks to the Management; namely, they send a teenager and lusty love interest to distract him.
Votes
Good: 0
Bad: 0
GoodBad
0
Seeders
1
Leechers

Added: 2014-07-11

Size: 3.11 GB

Health: 25%

Hash (Base16): 12A4E4834F83DD8AB2CE9B6D93CE5DDAAFEBB5AD

Hash (Base32): CKSOJA2PQPOYVMWOTNWZHTS53KX6XNNN

DownloadBookmark
^

The.Zero.Theorem.2013.720p.WEB-DL.XviD.AC3-RARBG

image

Title: The Zero Theorem (2013)
IMDB Rating: 6.6/10
Genres: Drama , Fantasy
Actors: Christoph Waltz , Mélanie Thierry , David Thewlis , Lucas Hedges , Matt Damon , Ben Whishaw , Tilda Swinton , Sanjeev Bhaskar , Ingrid Bisu , Margarita Doyle , Naomi Everson , Rupert Friend , Emil Hostina , Tudor Istodor , Madison Lygo
Runtime: 107
Year: 2013
Plot:
A computer hacker whose goal is to discover the reason for human existence continually finds his work interrupted thanks to the Management; namely| they send a
teenager and lusty love interest to distract him.


The.Zero.Theorem.2013.720p.WEB-DL.XviD.AC3-RARBG

http://imdb.com/title/tt2333804/

Screens:
image
image
image
image
image
image

Info:

[mediainfo]

Format : AVI
Format/Info : Audio Video Interleave
Format profile : OpenDML
File size : 3.11 GiB
Duration : 1h 46mn
Overall bit rate : 4 187 Kbps
Movie name : RARBG.COM - The.Zero.Theorem.2013.720p.WEB-DL.XviD.AC3-RARBG
Writing library : VirtualDub build 35491/release
Comment : RARBG.COM - The.Zero.Theorem.2013.720p.WEB-DL.XviD.AC3-RARBG

Video
ID : 0
Format : MPEG-4 Visual
Format profile : Simple@L5
Format settings, BVOP : No
Format settings, QPel : No
Format settings, GMC : No warppoints
Format settings, Matrix : Default (H.263)
Codec ID : XVID
Codec ID/Hint : XviD
Duration : 1h 46mn
Bit rate : 3 793 Kbps
Width : 1 280 pixels
Height : 728 pixels
Display aspect ratio : 16:9
Frame rate : 23.976 fps
Color space : YUV
Chroma subsampling : 4:2:0
Bit depth : 8 bits
Scan type : Progressive
Compression mode : Lossy
Bits/(Pixel*Frame) : 0.170
Stream size : 2.82 GiB (91%)
Writing library : Lavc55.61.100

Audio
ID : 1
Format : AC-3
Format/Info : Audio Coding 3
Mode extension : CM (complete main)
Format settings, Endianness : Big
Codec ID : 2000
Duration : 1h 46mn
Bit rate mode : Constant
Bit rate : 384 Kbps
Channel(s) : 6 channels
Channel positions : Front: L C R, Side: L R, LFE
Sampling rate : 48.0 KHz
Bit depth : 16 bits
Compression mode : Lossy
Stream size : 292 MiB (9%)
Alignment : Aligned on interleaves
Interleave, duration : 42 ms (1.00 video frame)
Interleave, preload duration : 512 ms


[/mediainfo]

Notes:
Greetz to everyone :)

TRACKERSEEDLEECHDOWNLOADED
http://mgtracker.org:2710/announce
udp://9.rarbg.me:2710/announce
udp://11.rarbg.me:80/announce
udp://10.rarbg.me:80/announce
udp://12.rarbg.me:80/announce
udp://9.rarbg.com:2710/announce
udp://open.demonii.com:1337/announce
udp://tracker.publicbt.com:80/announce
udp://tracker.istole.it:80/announce
udp://tracker.openbittorrent.com:80/announce
udp://tracker.istole.it:6969/announce
http://tracker.istole.it/announce
http://tracker1.wasabii.com.tw:6969/announce
http://tracker.leechers-paradise.org:6969/announce
http://bt.careland.com.cn:6969/announce
http://tracker.trackerfix.com/announce
udp://tracker.ccc.de:80/announce
http://tracker.thepiratebay.org/announce
http://210.244.71.11:6969/announce
http://shadowshq.eddie4.nl:6969/announce
http://shadowshq.yi.org:6969/announce
http://www.eddie4.nl:6969/announce
http://eddie4.nl:6969/announce
http://sugoi.pomf.se/announce
http://sugoi.pomf.se:2710/announce
http://retracker.perm.ertelecom.ru/announce
http://95.85.40.114/announce
http://121.14.98.151:9090/announce
udp://tracker-ccc.de:6969/announce
FILESIZE
The.Zero.Theorem.2013.720p.WEB-DL.XviD.AC3-RARBG.avi3.11 GB
RARBG.com.avi1.14 MB
The.Zero.Theorem.2013.720p.WEB-DL.XviD.AC3-RARBG.srt113.2 KB
The.Zero.Theorem.2013.720p.WEB-DL.XviD.AC3-RARBG.nfo3.2 KB
RARBG.com.txt31 B

Related results

Date Title Size Files Seeds Leechs Category Health
Video(Movies) 3.81 GB 5 2014-07-10 1 0 25%
Video(Movies) 3.33 GB 5 2014-07-11 1 0 25%
Video(Movies) 1.34 GB 5 2014-07-10 1 0 25%
Video(Movies) 1.48 GB 5 2014-07-10 1 0 25%
Video(Movies) 967.68 MB 4 2014-07-20 1 0 25%
Video(Movies) 1.34 GB 6 2014-07-20 0 1 25%
Video(Movies) 1.26 GB 4 2014-07-20 0 1 25%
Video(Movies) 3.33 GB 5 2014-07-14 0 1 25%

Login

Account deleting

Are you sure you want to delete your account?

WARNING: This action cannot be undone!!!