Login / Register
HDRiP

The.Zero.Theorem.2013.WEBrip x264 Ac3-MiLLENiUM

Category: Video
Type: Movies
Movie Title: The Zero Theorem
Detected quality: HDRiP
Release date: 2014-09-18
Cast: Christoph Waltz,Mélanie Thierry,David Thewlis,Lucas Hedges,Matt Damon,Tilda Swinton,Margarita Doyle,Madison Lygo,Peter Stormare,Gwendoline Christie,Sanjeev Bhaskar,Ben Whishaw,Emil Hostina,Lily Cole,Ray Cooper,Rupert Friend,Dan Astileanu,Ingrid Bisu
Genre: Drama, Fantasy, Sci-Fi
External Links: IMDB
Director: Terry Gilliam
Producers: Mark Bakunas,Chris Curling,Christoph Waltz,Amy Gilliam,Dean Zanuck,Phil Robertson,Nicolas Chartier,Andreea Stanculeanu,Patrick Newall,Patricia Poienaru,Zev Foreman,Dominic Rustam
Writers: Terry Gilliam,Pat Rushin
Duration: 107
IMDB rating: 6.2 (21,839 votes)
Summary: A computer hacker whose goal is to discover the reason for human existence continually finds his work interrupted thanks to the Management; namely, they send a teenager and lusty love interest to distract him.
Votes
Good: 0
Bad: 0
GoodBad
1
Seeders
0
Leechers

Added: 2014-07-13

Size: 1.21 GB

Health: 25%

Hash (Base16): AB3A5F2E613BFF3336695EEB4891121AB64BE2CF

Hash (Base32): VM5F6LTBHP7TGNTJL3VUREISDK3EXYWP

DownloadBookmark
^

The.Zero.Theorem.2013.WEBrip x264 Ac3-MiLLENiUM

image

Title: The Zero Theorem (2013)
IMDB Rating: 6.6/10
Genres: Drama , Fantasy
Actors: Christoph Waltz , Mélanie Thierry , David Thewlis , Lucas Hedges , Matt Damon , Ben Whishaw , Tilda Swinton , Sanjeev Bhaskar , Ingrid Bisu , Margarita Doyle , Naomi Everson , Rupert Friend , Emil Hostina , Tudor Istodor , Madison Lygo
Runtime: 107
Year: 2013
Plot:
A computer hacker whose goal is to discover the reason for human existence continually finds his work interrupted thanks to the Management; namely| they send a
teenager and lusty love interest to distract him. [mediainfo]


Format : Matroska
Format version : Version 2
File size : 1.19 GiB
Duration : 1h 46mn
Overall bit rate mode : Variable
Overall bit rate : 1 604 Kbps
Encoded date : UTC 2014-07-11 21:44:56
Writing application : mkvmerge v6.9.1 ('Blue Panther') 32bit built on Apr 18 2014 18:15:44
Writing library : libebml v1.3.0 + libmatroska v1.4.1

Video
ID : 1
Format : AVC
Format/Info : Advanced Video Codec
Format profile : High@L4.1
Format settings, CABAC : Yes
Format settings, ReFrames : 3 frames
Codec ID : V_MPEG4/ISO/AVC
Duration : 1h 46mn
Bit rate mode : Variable
Bit rate : 1 188 Kbps
Maximum bit rate : 40.0 Mbps
Width : 720 pixels
Height : 384 pixels
Display aspect ratio : 1.85:1
Frame rate mode : Constant
Frame rate : 23.976 fps
Color space : YUV
Chroma subsampling : 4:2:0
Bit depth : 8 bits
Scan type : Progressive
Bits/(Pixel*Frame) : 0.179
Stream size : 904 MiB (74%)
Writing library : x264 core 142 r2431 ac76440
Encoding settings : cabac=1 / ref=4 / deblock=1:-1:-1 / analyse=0x3:0x113 / me=hex / subme=7 / psy=1 / psy_rd=1.00:0.15 / mixed_ref=1 / me_range=16 / chroma_me=1 / trellis=1 / 8x8dct=1 / cqm=0 / deadzone=21,11 / fast_pskip=1 / chroma_qp_offset=-3 / threads=10 / lookahead_threads=1 / sliced_threads=0 / slices=4 / nr=0 / decimate=1 / interlaced=0 / bluray_compat=0 / constrained_intra=0 / bframes=3 / b_pyramid=1 / b_adapt=1 / b_bias=0 / direct=1 / weightb=1 / open_gop=0 / weightp=0 / keyint=23 / keyint_min=1 / scenecut=40 / intra_refresh=0 / rc_lookahead=23 / rc=crf / mbtree=1 / crf=21.0 / qcomp=0.60 / qpmin=10 / qpmax=51 / qpstep=4 / vbv_maxrate=40000 / vbv_bufsize=30000 / crf_max=0.0 / nal_hrd=vbr / filler=0 / ip_ratio=1.40 / aq=1:1.00
Default : Yes
Forced : No
Color primaries : BT.709
Transfer characteristics : BT.709
Matrix coefficients : BT.709

Audio
ID : 2
Format : AC-3
Format/Info : Audio Coding 3
Mode extension : CM (complete main)
Format settings, Endianness : Big
Codec ID : A_AC3
Duration : 1h 46mn
Bit rate mode : Constant
Bit rate : 384 Kbps
Channel(s) : 6 channels
Channel positions : Front: L C R, Side: L R, LFE
Sampling rate : 48.0 KHz
Bit depth : 16 bits
Compression mode : Lossy
Stream size : 292 MiB (24%)
Language : English
Default : Yes
Forced : No

[/mediainfo]

TRACKERSEEDLEECHDOWNLOADED
udp://9.rarbg.me:2710/announce
udp://11.rarbg.me:80/announce
udp://10.rarbg.me:80/announce
udp://12.rarbg.me:80/announce
udp://9.rarbg.com:2710/announce
udp://open.demonii.com:1337/announce
udp://tracker.publicbt.com:80/announce
udp://tracker.istole.it:80/announce
udp://tracker.openbittorrent.com:80/announce
udp://tracker.istole.it:6969/announce
http://tracker.trackerfix.com/announce
http://exodus.desync.com:6969/announce
udp://tracker.ccc.de:80/announce
http://tracker.thepiratebay.org/announce
udp://tracker-ccc.de:6969/announce
FILESIZE
RARBG.com.txt31 B
The.Zero.Theorem.2013.WEBrip x264 Ac3-MiLLENiUM.mkv1.19 GB
The.Zero.Theorem.2013.WEBrip x264 Ac3-MiLLENiUM.nfo7.59 KB
sample.mkv25.37 MB

Related results

Date Title Size Files Seeds Leechs Category Health
Video(Movies) 1.21 GB 5 2014-07-11 1 0 25%
Video(Movies) 1.21 GB 5 2014-07-11 0 1 25%

Login

Account deleting

Are you sure you want to delete your account?

WARNING: This action cannot be undone!!!