Login / Register
DVDRip

The.Hooligan.Factory.2014.HDRip.XviD-ViP3R

Category: Video
Type: Movies
Movie Title: The Hooligan Factory
Detected quality: DVDRip
Release date: 2014-06-12
Cast: Keith-Lee Castle,Shane Hart,Norman Buckland,Leon Corbin,Craig Izzard,Angelo Soteriou,Grant Huggair,Louis Taylor,Glenn Webster,Richard Woodward,Jude Campbell,Danny Dyer,Dexter Fletcher,Josef Altin,Craig Fairbrass,Jamie Foreman,Jamie Foreman,Ray Fearon
Genre: Comedy
External Links: IMDB
Director: Nick Nevern
Producers: Nick Nevern,Jason Maza,Andy Mayson,Robert Jones,Marshall Leviten,Michael Lindley,Wayne Marc Godfrey,Will Clarke,Andy Mayson,Arnaud Lannic,Mike Runagall,Marshal Leviten,Lottie Abrahams,David Gilbery,Christophe Lannic
Writers: Nick Nevern,Michael Lindley
Duration: 90
IMDB rating: 7.7 (89 votes)
Summary: Danny wants something more. Expelled from school and living in his grandfathers flat, he longs to live up to the image of his estranged father Danny Senior. Sent to prison for force feeding a judge his own wig Danny Senior was a legend and Danny is looking for a way to emulate his father's achievements and rise to be "top boy". Meanwhile in Wormwood Scrubs prison legendary football hooligan Dex is about to be released. Dex is on a quest of his own, one of vengeance against his nemesis and rival firm leader Yeti. But when Danny and Dex's paths cross they embark on a journey as old as hooliganism itself. Dex, Danny and The Hooligan Factory travel the length of the country on a mission to re-establish their firm's glory days. However, the police are closing in and we get a sense that the Hooligan Factory's best days may be behind them, but with Danny on their side, and Dex finding his old form who knows where this may lead. After all... Its a funny old game.
Votes
Good: 0
Bad: 0
GoodBad
0
Seeders
1
Leechers

Added: 2014-07-13

Size: 710.2 MB

Health: 25%

Hash (Base16): 8CD68D78735F287C7DA9C4BCDC8E8F0B65B8C8D9

Hash (Base32): RTLI26DTL4UHY7NJYS6NZDUPBNS3RSGZ

DownloadBookmark
^

The.Hooligan.Factory.2014.HDRip.XviD-ViP3R

image

Title: The Hooligan Factory (2014)
IMDB Rating: 7.3/10
Genres: Comedy
Actors: Jason Maza , Nick Nevern , Tom Burke , Ray Fearon , Steven O'Donnell , Morgan Watkins , Josef Altin , Ronnie Fox , Leo Gregory , Keith-Lee Castle , Lorraine Stanley , Craig Fairbrass , Neil Large , Juliet Oldfield , Billy Matthews
Runtime: 90
Year: 2014
Plot:
Danny wants something more. Expelled from school and living in his grandfathers flat| he longs to live up to the image of his estranged father Danny Senior. Sent to
prison for force feeding a judge his own wig Danny Senior was a legend and Danny is looking for a way to emulate his father's achievements and rise to be "top boy".
Meanwhile in Wormwood Scrubs prison legendary football hooligan Dex is about to be released. Dex is on a quest of his own| one of vengeance against his nemesis and
rival firm leader Yeti. But when Danny and Dex's paths cross they embark on a journey as old as hooliganism itself. Dex| Danny and The Hooligan Factory travel the
length of the country on a mission to re-establish their firm's glory days. However| the police are closing in and we get a sense that the Hooligan Factory's best
days may be behind them| but with Danny on their side| and Dex finding his old form who knows where this may lead. After all... Its a funny old game. [mediainfo]


Format : AVI
Format/Info : Audio Video Interleave
File size : 700 MiB
Duration : 1h 29mn
Overall bit rate mode : Variable
Overall bit rate : 1 090 Kbps
Writing application : VirtualDubMod 1.5.4.1 (build 2178/release)
Writing library : VirtualDubMod build 2178/release

Video
ID : 0
Format : MPEG-4 Visual
Format profile : Advanced [email protected]
Format settings, BVOP : 1
Format settings, QPel : No
Format settings, GMC : No warppoints
Format settings, Matrix : Custom
Codec ID : XVID
Codec ID/Hint : XviD
Duration : 1h 29mn
Bit rate : 965 Kbps
Width : 640 pixels
Height : 272 pixels
Display aspect ratio : 2.35:1
Frame rate : 23.976 fps
Color space : YUV
Chroma subsampling : 4:2:0
Bit depth : 8 bits
Scan type : Progressive
Compression mode : Lossy
Bits/(Pixel*Frame) : 0.231
Stream size : 619 MiB (88%)
Writing library : XviD 1.2.1 (UTC 2008-12-04)

Audio
ID : 1
Format : MPEG Audio
Format version : Version 1
Format profile : Layer 3
Mode : Joint stereo
Mode extension : MS Stereo
Codec ID : 55
Codec ID/Hint : MP3
Duration : 1h 29mn
Bit rate mode : Variable
Bit rate : 113 Kbps
Nominal bit rate : 128 Kbps
Channel(s) : 2 channels
Sampling rate : 48.0 KHz
Compression mode : Lossy
Stream size : 72.6 MiB (10%)
Alignment : Aligned on interleaves
Interleave, duration : 24 ms (0.58 video frame)
Interleave, preload duration : 162 ms
Writing library : LAME3.98r
Encoding settings : -m j -V 4 -q 2 -lowpass 17 --abr 128

[/mediainfo]

TRACKERSEEDLEECHDOWNLOADED
udp://9.rarbg.me:2710/announce
udp://11.rarbg.me:80/announce
udp://10.rarbg.me:80/announce
udp://12.rarbg.me:80/announce
udp://9.rarbg.com:2710/announce
udp://open.demonii.com:1337/announce
udp://tracker.publicbt.com:80/announce
udp://tracker.istole.it:80/announce
udp://tracker.openbittorrent.com:80/announce
udp://tracker.istole.it:6969/announce
http://tracker.istole.it/announce
http://tracker.trackerfix.com/announce
udp://tracker.ccc.de:80/announce
http://tracker.thepiratebay.org/announce
udp://tracker-ccc.de:6969/announce
FILESIZE
RARBG.com.txt31 B
The.Hooligan.Factory.2014.HDRip.XviD-ViP3R(Sample).avi9.98 MB
The.Hooligan.Factory.2014.HDRip.XviD-ViP3R.avi700.22 MB
The.Hooligan.Factory.2014.HDRip.XviD-ViP3R.nfo2.09 KB

Related results

Date Title Size Files Seeds Leechs Category Health
Video(Movies) 705.74 MB 5 2014-07-11 0 1 25%
Video(Movies) 1.37 GB 2 2014-07-11 1 0 25%
Video(Movies) 710.2 MB 4 2014-07-11 0 1 25%
Video(Movies) 710.21 MB 5 2014-07-11 1 0 25%
Video(Movies) 710.2 MB 5 2014-07-11 1 0 25%
Video(Movies) 1.37 GB 3 2014-07-11 1 0 25%

Login

Account deleting

Are you sure you want to delete your account?

WARNING: This action cannot be undone!!!