Login / Register
DVDRip

The Hooligan Factory 2014WEBrip x264 Ac3-MiLLENiUM

Category: Video
Type: Movies
Movie Title: The Hooligan Factory
Detected quality: DVDRip
Release date: 2014-06-12
Cast: Keith-Lee Castle,Shane Hart,Norman Buckland,Leon Corbin,Craig Izzard,Angelo Soteriou,Grant Huggair,Louis Taylor,Glenn Webster,Richard Woodward,Jude Campbell,Danny Dyer,Dexter Fletcher,Josef Altin,Craig Fairbrass,Jamie Foreman,Jamie Foreman,Ray Fearon
Genre: Comedy
External Links: IMDB
Director: Nick Nevern
Producers: Nick Nevern,Jason Maza,Andy Mayson,Robert Jones,Marshall Leviten,Michael Lindley,Wayne Marc Godfrey,Will Clarke,Andy Mayson,Arnaud Lannic,Mike Runagall,Marshal Leviten,Lottie Abrahams,David Gilbery,Christophe Lannic
Writers: Nick Nevern,Michael Lindley
Duration: 90
IMDB rating: 7.7 (89 votes)
Summary: Danny wants something more. Expelled from school and living in his grandfathers flat, he longs to live up to the image of his estranged father Danny Senior. Sent to prison for force feeding a judge his own wig Danny Senior was a legend and Danny is looking for a way to emulate his father's achievements and rise to be "top boy". Meanwhile in Wormwood Scrubs prison legendary football hooligan Dex is about to be released. Dex is on a quest of his own, one of vengeance against his nemesis and rival firm leader Yeti. But when Danny and Dex's paths cross they embark on a journey as old as hooliganism itself. Dex, Danny and The Hooligan Factory travel the length of the country on a mission to re-establish their firm's glory days. However, the police are closing in and we get a sense that the Hooligan Factory's best days may be behind them, but with Danny on their side, and Dex finding his old form who knows where this may lead. After all... Its a funny old game.
Votes
Good: 0
Bad: 0
GoodBad
0
Seeders
1
Leechers

Added: 2014-07-13

Size: 877.09 MB

Health: 25%

Hash (Base16): 65E08E5CC2D7E0B019FF6FC53EA1954D69E29175

Hash (Base32): MXQI4XGC27QLAGP7N7CT5IMVJVU6FELV

DownloadBookmark
^

The Hooligan Factory 2014WEBrip x264 Ac3-MiLLENiUM

image

Title: The Hooligan Factory (2014)
IMDB Rating: 7.3/10
Genres: Comedy
Actors: Jason Maza , Nick Nevern , Tom Burke , Ray Fearon , Steven O'Donnell , Morgan Watkins , Josef Altin , Ronnie Fox , Leo Gregory , Keith-Lee Castle , Lorraine Stanley , Craig Fairbrass , Neil Large , Juliet Oldfield , Billy Matthews
Runtime: 90
Year: 2014
Plot:
Danny wants something more. Expelled from school and living in his grandfathers flat| he longs to live up to the image of his estranged father Danny Senior. Sent to
prison for force feeding a judge his own wig Danny Senior was a legend and Danny is looking for a way to emulate his father's achievements and rise to be "top boy".
Meanwhile in Wormwood Scrubs prison legendary football hooligan Dex is about to be released. Dex is on a quest of his own| one of vengeance against his nemesis and
rival firm leader Yeti. But when Danny and Dex's paths cross they embark on a journey as old as hooliganism itself. Dex| Danny and The Hooligan Factory travel the
length of the country on a mission to re-establish their firm's glory days. However| the police are closing in and we get a sense that the Hooligan Factory's best
days may be behind them| but with Danny on their side| and Dex finding his old form who knows where this may lead. After all... Its a funny old game. [mediainfo]


Format : Matroska
Format version : Version 2
File size : 858 MiB
Duration : 1h 29mn
Overall bit rate mode : Variable
Overall bit rate : 1 337 Kbps
Encoded date : UTC 2014-07-11 20:14:56
Writing application : mkvmerge v6.9.1 ('Blue Panther') 32bit built on Apr 18 2014 18:15:44
Writing library : libebml v1.3.0 + libmatroska v1.4.1

Video
ID : 1
Format : AVC
Format/Info : Advanced Video Codec
Format profile : High@L4.1
Format settings, CABAC : Yes
Format settings, ReFrames : 3 frames
Codec ID : V_MPEG4/ISO/AVC
Duration : 1h 29mn
Bit rate mode : Variable
Bit rate : 926 Kbps
Maximum bit rate : 40.0 Mbps
Width : 720 pixels
Height : 304 pixels
Display aspect ratio : 2.35:1
Frame rate mode : Constant
Frame rate : 23.976 fps
Color space : YUV
Chroma subsampling : 4:2:0
Bit depth : 8 bits
Scan type : Progressive
Bits/(Pixel*Frame) : 0.176
Stream size : 595 MiB (69%)
Writing library : x264 core 142 r2431 ac76440
Encoding settings : cabac=1 / ref=4 / deblock=1:-1:-1 / analyse=0x3:0x113 / me=hex / subme=7 / psy=1 / psy_rd=1.00:0.15 / mixed_ref=1 / me_range=16 / chroma_me=1 / trellis=1 / 8x8dct=1 / cqm=0 / deadzone=21,11 / fast_pskip=1 / chroma_qp_offset=-3 / threads=10 / lookahead_threads=1 / sliced_threads=0 / slices=4 / nr=0 / decimate=1 / interlaced=0 / bluray_compat=0 / constrained_intra=0 / bframes=3 / b_pyramid=1 / b_adapt=1 / b_bias=0 / direct=1 / weightb=1 / open_gop=0 / weightp=0 / keyint=23 / keyint_min=1 / scenecut=40 / intra_refresh=0 / rc_lookahead=23 / rc=crf / mbtree=1 / crf=21.0 / qcomp=0.60 / qpmin=10 / qpmax=51 / qpstep=4 / vbv_maxrate=40000 / vbv_bufsize=30000 / crf_max=0.0 / nal_hrd=vbr / filler=0 / ip_ratio=1.40 / aq=1:1.00
Default : Yes
Forced : No
Color primaries : BT.709
Transfer characteristics : BT.709
Matrix coefficients : BT.709

Audio
ID : 2
Format : AC-3
Format/Info : Audio Coding 3
Mode extension : CM (complete main)
Format settings, Endianness : Big
Codec ID : A_AC3
Duration : 1h 29mn
Bit rate mode : Constant
Bit rate : 384 Kbps
Channel(s) : 6 channels
Channel positions : Front: L C R, Side: L R, LFE
Sampling rate : 48.0 KHz
Bit depth : 16 bits
Compression mode : Lossy
Stream size : 247 MiB (29%)
Language : English
Default : Yes
Forced : No

[/mediainfo]

TRACKERSEEDLEECHDOWNLOADED
udp://9.rarbg.me:2710/announce
udp://11.rarbg.me:80/announce
udp://10.rarbg.me:80/announce
udp://12.rarbg.me:80/announce
udp://9.rarbg.com:2710/announce
udp://open.demonii.com:1337/announce
udp://tracker.publicbt.com:80/announce
udp://tracker.istole.it:80/announce
udp://tracker.openbittorrent.com:80/announce
udp://tracker.istole.it:6969/announce
http://tracker.istole.it/announce
http://tracker.trackerfix.com/announce
udp://tracker.ccc.de:80/announce
http://tracker.thepiratebay.org/announce
udp://tracker-ccc.de:6969/announce
FILESIZE
RARBG.com.txt31 B
The.Hooligan.Factory.2014WEBrip x264 Ac3-MiLLENiUM.mkv858.3 MB
The.Hooligan.Factory.2014WEBrip x264 Ac3-MiLLENiUM.nfo7.38 KB
sample.mkv18.79 MB

Related results

Date Title Size Files Seeds Leechs Category Health
Video(Movies) 877.09 MB 4 2014-07-11 0 0 N/A
Video(Movies) 877.1 MB 5 2014-07-11 1 0 25%
Video(Movies) 877.09 MB 5 2014-07-11 1 0 25%

Login

Account deleting

Are you sure you want to delete your account?

WARNING: This action cannot be undone!!!