Login / Register
HDRiP

Need.For.Speed.2014.BRRip.XviD-AQOS

Category: Video
Type: Movies
Movie Title: Tattoo Nightmares
Detected quality: HDRiP
Release date: 2014-03-13
Cast: SallyAnn Salsano,Davide Illiano,Rick Mancia,Chance Moore,Ashley Romero,Crystal Lonneberg,Ashley Saint'Onge,Madison Blaire Turner,Erika Bryant,Nick Fries,Jacob Walke
Genre: Reality-TV
External Links: IMDB
Director: Brad Kreisberg
Producer: Robin Koethcke
Writer: SallyAnn Salsano
Duration: 60
IMDB rating: 6.6 (105,468 votes)
Summary: Show chronicles the horror stories behind people's unfortunate tattoos and their attempts to fix them. The series, will include tattoos ranging from the hilarious to downright disturbing, with reenactments that will show how these people wound up with their ink. The show's contestants will then go under the needle to remove or cover them.
Votes
Good: 0
Bad: 0
GoodBad
1
Seeders
1
Leechers

Added: 2014-07-13

Size: 1.1 GB

Health: 25%

Hash (Base16): BCF789F68880174E8BA0C3793893E03E7CA13A26

Hash (Base32): XT3YT5UIQALU5C5AYN4TRE7AHZ6KCORG

DownloadBookmark
^

Need.For.Speed.2014.BRRip.XviD-AQOS

image

Title: Need for Speed (2014)
IMDB Rating: 7.2/10
Genres: Action , Crime , Drama , Thriller
Actors: Aaron Paul , Dominic Cooper , Imogen Poots , Scott Mescudi , Rami Malek , Ramon Rodriguez , Harrison Gilbertson , Dakota Johnson , Stevie Ray Dallimore , Michael Keaton , Alan Pflueger , Brian L. Keaulana , Logan Holladay , Carmela Zumbado , Jalil Jay Lynch
Runtime: 132
Year: 2014
Plot:
Framed by an ex-partner for a murder he did not commit| Tobey Marshall| a financially struggling custom-car builder and street-racer| spends two years in jail
thinking about one moment. Fresh out of prison he reacquires the fastest car his workshop ever built and sold| and seeks to enter a secretive and extremely
high-stakes race known as The DeLeon. His purpose; redemption| recognition from the world of racing and to solve his problems. Yet all this fades in comparison to
his driving reason. Revenge. Above all| revenge. This is a story about love| redemption| revenge and motor oil all swirled together| but above all; It's a story
about fast| fast cars. [mediainfo]


Format : AVI
Format/Info : Audio Video Interleave
File size : 1.09 GiB
Duration : 2h 10mn
Overall bit rate : 1 197 Kbps

Video
ID : 0
Format : MPEG-4 Visual
Format profile : Advanced Simple@L5
Format settings, BVOP : 2
Format settings, QPel : No
Format settings, GMC : No warppoints
Format settings, Matrix : Default (H.263)
Codec ID : XVID
Codec ID/Hint : XviD
Duration : 2h 10mn
Bit rate : 1 065 Kbps
Width : 720 pixels
Height : 304 pixels
Display aspect ratio : 2.35:1
Frame rate : 23.976 fps
Color space : YUV
Chroma subsampling : 4:2:0
Bit depth : 8 bits
Scan type : Progressive
Compression mode : Lossy
Bits/(Pixel*Frame) : 0.203
Stream size : 996 MiB (89%)
Writing library : XviD 1.2.1 (UTC 2008-12-04)

Audio
ID : 1
Format : MPEG Audio
Format version : Version 1
Format profile : Layer 3
Mode : Joint stereo
Codec ID : 55
Codec ID/Hint : MP3
Duration : 2h 8mn
Bit rate mode : Constant
Bit rate : 128 Kbps
Channel(s) : 2 channels
Sampling rate : 48.0 KHz
Compression mode : Lossy
Stream size : 118 MiB (11%)
Alignment : Aligned on interleaves
Interleave, duration : 170 ms (4.07 video frames)
Interleave, preload duration : 216 ms
Title : Need.For.Speed.2014 - [0] English
Writing library : LAME3.99r
Encoding settings : -m j -V 4 -q 2 -lowpass 17 -b 128

[/mediainfo]

TRACKERSEEDLEECHDOWNLOADED
http://mgtracker.org:2710/announce
udp://9.rarbg.me:2710/announce
udp://11.rarbg.me:80/announce
udp://10.rarbg.me:80/announce
udp://12.rarbg.me:80/announce
udp://9.rarbg.com:2710/announce
udp://open.demonii.com:1337/announce
udp://tracker.publicbt.com:80/announce
udp://tracker.istole.it:80/announce
udp://tracker.openbittorrent.com:80/announce
udp://tracker.istole.it:6969/announce
http://tracker.istole.it/announce
http://bt.careland.com.cn:6969/announce
http://bttracker.crunchbanglinux.org:6969/announce
http://tracker.best-torrents.net:6969/announce
http://tracker.trackerfix.com/announce
http://exodus.desync.com:6969/announce
udp://tracker.ccc.de:80/announce
http://tracker.thepiratebay.org/announce
udp://tracker-ccc.de:6969/announce
FILESIZE
RARBG.com.txt31 B
Subs/English.srt96.55 KB
aqos-need.for.speed.2014.brrip.xvid.avi1.09 GB
aqos-need.for.speed.2014.brrip.xvid.nfo13.27 KB
sample.avi6.16 MB

Related results

Date Title Size Files Seeds Leechs Category Health
Video(Movies) 1.95 GB 2 2014-07-11 136 19 100%
Video(Movies) 876.86 MB 2 2014-07-11 6 2 100%
Video(Movies) 750.9 MB 3 2013-05-03 5 1 100%
Video(Movies) 4.11 GB 4 2014-07-15 1 0 25%
Video(3D Movies) 1.96 GB 2 2014-07-19 0 1 25%
Video(Movies) 1.8 GB 2 2014-07-12 1 0 25%
Video(Movies) 3.29 GB 3 2014-07-11 0 1 25%

Login

Account deleting

Are you sure you want to delete your account?

WARNING: This action cannot be undone!!!