Login / Register
HDRiP

Brick Mansions 2014 720p WEBRip XVID AC3 ACAB

Category: Video
Type: Movies
Movie Title: Brick Mansions
Detected quality: HDRiP
Release date: 2014-04-24
Cast: Paul Walker,David Belle,RZA,Frank Fontaine,Catalina Denis,Robert Maillet,Annie Li Meng Tong,Carlo Rota,Mark Camacho,Mark Camacho,David McKeown,Danny Blanco Hall,Danny Blanco Hall,Andy Bradshaw,Ron Lea,Andreas Apergis,Richard Zeman,Bruce Ramsay
Genre: Action, Crime, Drama
External Links: IMDB
Director: Camille Delamarre
Producers: Luc Besson,Matt Alvarez,Romuald Drault,Ginette Guillard,Jonathan Vanger,Tucker Tooley,Ryan Kavanaugh,Henri Deneubourg,Jason Beckman,Jason Colodne,Claude Léger
Writers: Luc Besson,Bibi Naceri
Duration: 90
IMDB rating: 5.7 (19,500 votes)
Summary: An undercover Detroit cop navigates a dangerous neighborhood that's surrounded by a containment wall with the help of an ex-con in order to bring down a crime lord and his plot to devastate the entire city.
Votes
Good: 0
Bad: 0
GoodBad
1
Seeders
0
Leechers

Added: 2014-07-10

Size: 1.94 GB

Health: 25%

Hash (Base16): 0306A10F80C7DFDFB10F7A30CF70EA8D87B1FAFF

Hash (Base32): AMDKCD4AY7P57MIPPIYM64HKRWD3D6X7

DownloadBookmark
^

Brick Mansions 2014 720p WEBRip XVID AC3 ACAB

image

Title: Brick Mansions (2014)
IMDB Rating: 6.0/10
Genres: Action , Crime , Drama
Actors: Paul Walker , David Belle , RZA , Gouchy Boy , Catalina Denis , Ayisha Issa , Carlo Rota , Andreas Apergis , Richard Zeman , Robert Maillet , Bruce Ramsay , Frank Fontaine , Chimwemwe Miller , Bradshaw Anderson , Ryan Trudeau
Runtime: 90
Year: 2014
Plot:
An undercover Detroit cop navigates a dangerous neighborhood that's surrounded by a containment wall with the help of an ex-con in order to bring down a crime lord
and his plot to devastate the entire city. [mediainfo]


Format : AVI
Format/Info : Audio Video Interleave
File size : 1.92 GiB
Duration : 1h 25mn
Overall bit rate : 3 198 Kbps
Writing library : VirtualDub build 30091/release

Video
ID : 0
Format : MPEG-4 Visual
Format profile : Advanced [email protected]
Format settings, BVOP : 2
Format settings, QPel : No
Format settings, GMC : No warppoints
Format settings, Matrix : Default (H.263)
Muxing mode : Packed bitstream
Codec ID : XVID
Codec ID/Hint : XviD
Duration : 1h 25mn
Bit rate : 3 005 Kbps
Width : 1 280 pixels
Height : 544 pixels
Display aspect ratio : 2.35:1
Frame rate : 25.000 fps
Color space : YUV
Chroma subsampling : 4:2:0
Bit depth : 8 bits
Scan type : Progressive
Compression mode : Lossy
Bits/(Pixel*Frame) : 0.173
Stream size : 1.80 GiB (94%)
Writing library : XviD 65

Audio
ID : 1
Format : AC-3
Format/Info : Audio Coding 3
Mode extension : CM (complete main)
Format settings, Endianness : Big
Codec ID : 2000
Duration : 1h 21mn
Bit rate mode : Constant
Bit rate : 192 Kbps
Channel(s) : 2 channels
Channel positions : Front: L R
Sampling rate : 48.0 KHz
Bit depth : 16 bits
Compression mode : Lossy
Stream size : 113 MiB (6%)
Alignment : Aligned on interleaves
Interleave, duration : 42 ms (1.05 video frame)
Interleave, preload duration : 512 ms

[/mediainfo]

TRACKERSEEDLEECHDOWNLOADED
udp://9.rarbg.me:2710/announce
udp://11.rarbg.me:80/announce
udp://10.rarbg.me:80/announce
udp://12.rarbg.me:80/announce
udp://9.rarbg.com:2710/announce
udp://open.demonii.com:1337/announce
udp://tracker.publicbt.com:80/announce
udp://tracker.istole.it:80/announce
udp://tracker.openbittorrent.com:80/announce
udp://tracker.istole.it:6969/announce
http://tracker.trackerfix.com/announce
http://exodus.desync.com:6969/announce
http://9.rarbg.com:2710/announce
udp://tracker.ccc.de:80/announce
http://tracker.thepiratebay.org/announce
udp://tracker-ccc.de:6969/announce
FILESIZE
Brick Mansions 2014 720p WEBRip XVID AC3 ACAB sample.avi21.04 MB
Brick Mansions 2014 720p WEBRip XVID AC3 ACAB.avi1.92 GB
RARBG.com.txt31 B

Related results

Date Title Size Files Seeds Leechs Category Health
Video(Movies) 2.53 GB 4 2014-07-09 0 1 25%
Video(Movies) 1.56 GB 5 2014-06-21 5 5 25%
Video(Movies) 1.37 GB 1 2014-06-19 1 0 25%
Video(Movies) 706.69 MB 5 2014-06-21 0 1 25%
Video(Movies) 1.2 GB 5 2014-06-30 0 1 25%
Video(Movies) 921.94 MB 3 2014-06-21 0 1 25%
Video(Movies) 313.25 MB 3 2014-06-20 1 0 25%
Video(Movies) 290.76 MB 2 2014-06-19 1 0 25%

Login

Account deleting

Are you sure you want to delete your account?

WARNING: This action cannot be undone!!!