Login / Register

Brick.Mansions.2014.1080p.WEBRip.x264.AC3-RARBG

Category: Video
Type: Movies
Movie Title: Brick Mansions
Cast: Paul Walker,David Belle,RZA,Frank Fontaine,Catalina Denis,Robert Maillet,Annie Li Meng Tong,Carlo Rota,Mark Camacho,Mark Camacho,David McKeown,Danny Blanco Hall,Danny Blanco Hall,Andy Bradshaw,Ron Lea,Andreas Apergis,Richard Zeman,Bruce Ramsay
Genre: Action, Crime, Drama
External Links: IMDB
Director: Camille Delamarre
Producers: Luc Besson,Matt Alvarez,Romuald Drault,Ginette Guillard,Jonathan Vanger,Tucker Tooley,Ryan Kavanaugh,Henri Deneubourg,Jason Beckman,Jason Colodne,Claude Léger
Writers: Luc Besson,Bibi Naceri
Duration: 90
Summary: An undercover Detroit cop navigates a dangerous neighborhood that's surrounded by a containment wall with the help of an ex-con in order to bring down a crime lord and his plot to devastate the entire city.
Votes
Good: 0
Bad: 0
GoodBad
1
Seeders
0
Leechers

Added: 2014-07-10

Size: 2.53 GB

Health: 25%

Hash (Base16): 3D8A965FC879E1F39F2FB474D374C9E397691A1B

Hash (Base32): HWFJMX6IPHQ7HHZPWR2NG5GJ4OLWSGQ3

DownloadBookmark
^

Brick.Mansions.2014.1080p.WEBRip.x264.AC3-RARBG

image

Title: Brick Mansions (2014)
IMDB Rating: 6.0/10
Genres: Action , Crime , Drama
Actors: Paul Walker , David Belle , RZA , Gouchy Boy , Catalina Denis , Ayisha Issa , Carlo Rota , Andreas Apergis , Richard Zeman , Robert Maillet , Bruce Ramsay , Frank Fontaine , Chimwemwe Miller , Bradshaw Anderson , Ryan Trudeau
Runtime: 90
Year: 2014
Plot:
An undercover Detroit cop navigates a dangerous neighborhood that's surrounded by a containment wall with the help of an ex-con in order to bring down a crime lord
and his plot to devastate the entire city.


Brick.Mansions.2014.1080p.WEBRip.x264.AC3-RARBG

http://imdb.com/title/tt1430612/

Screens:
image
image
image
image
image
image

Info:

[mediainfo]

Video
ID : 1
Format : AVC
Format/Info : Advanced Video Codec
Format profile : High@L4.0
Format settings, CABAC : Yes
Format settings, ReFrames : 3 frames
Format settings, GOP : N=1
Codec ID : V_MPEG4/ISO/AVC
Duration : 1h 26mn
Bit rate : 4 000 Kbps
Width : 1 920 pixels
Height : 858 pixels
Display aspect ratio : 2.25:1
Frame rate mode : Constant
Frame rate : 25.000 fps
Color space : YUV
Chroma subsampling : 4:2:0
Bit depth : 8 bits
Scan type : Progressive
Bits/(Pixel*Frame) : 0.097
Stream size : 2.36 GiB (93%)
Title : Brick.Mansions.2014.1080p.WEBRip.x264.AC3-RARBG
Writing library : x264 core 142 r2389 956c8d8
Default : Yes
Forced : No
Color primaries : BT.709
Transfer characteristics : BT.709
Matrix coefficients : BT.709

Audio
ID : 2
Format : AC-3
Format/Info : Audio Coding 3
Mode extension : CM (complete main)
Format settings, Endianness : Big
Codec ID : A_AC3
Duration : 1h 26mn
Bit rate mode : Constant
Bit rate : 192 Kbps
Channel(s) : 2 channels
Channel positions : Front: L R
Sampling rate : 48.0 KHz
Bit depth : 16 bits
Compression mode : Lossy
Delay relative to video : 2s 100ms
Stream size : 119 MiB (5%)
Title : Brick.Mansions.2014.1080p.WEBRip.x264.AC3-RARBG
Language : English
Default : Yes
Forced : No

[/mediainfo]

Notes:
Greetz to everyone :)

TRACKERSEEDLEECHDOWNLOADED
http://mgtracker.org:2710/announce
udp://9.rarbg.me:2710/announce
udp://11.rarbg.me:80/announce
udp://10.rarbg.me:80/announce
udp://12.rarbg.me:80/announce
udp://9.rarbg.com:2710/announce
udp://open.demonii.com:1337/announce
udp://tracker.publicbt.com:80/announce
udp://tracker.istole.it:80/announce
udp://tracker.openbittorrent.com:80/announce
udp://tracker.istole.it:6969/announce
http://tracker.istole.it/announce
http://tracker1.wasabii.com.tw:6969/announce
http://tracker.leechers-paradise.org:6969/announce
http://bt.careland.com.cn:6969/announce
http://bttracker.crunchbanglinux.org:6969/announce
http://tracker.best-torrents.net:6969/announce
http://tracker.trackerfix.com/announce
udp://tracker.ccc.de:80/announce
http://tracker.thepiratebay.org/announce
http://shadowshq.eddie4.nl:6969/announce
http://shadowshq.yi.org:6969/announce
http://www.eddie4.nl:6969/announce
http://eddie4.nl:6969/announce
http://retracker.adminko.org/announce
http://retracker.uln-ix.ru/announce
http://retracker.perm.ertelecom.ru/announce
http://tracker2.wasabii.com.tw:6969/announce
http://server2.9sheng.cn:6969/announce
http://121.14.98.151:9090/announce
udp://tracker-ccc.de:6969/announce
FILESIZE
Brick.Mansions.2014.1080p.WEBRip.x264.AC3-RARBG.mkv2.53 GB
RARBG.com.mp4992.93 KB
Brick.Mansions.2014.1080p.WEBRip.x264.AC3-RARBG.nfo2.99 KB
RARBG.com.txt31 B

Related results

Date Title Size Files Seeds Leechs Category Health
Video(Movies) 1.82 GB 5 2014-06-22 0 1 25%
Video(Movies) 1.56 GB 5 2014-06-21 3 0 25%

Login

Account deleting

Are you sure you want to delete your account?

WARNING: This action cannot be undone!!!