Login / Register

Brick.Mansions.2014.WEBRip.Studio.Audio.XViD.AC3-BL4CKP34RL

Category: Video
Type: Movies
Movie Title: Brick Mansions
Cast: Paul Walker,David Belle,RZA,Frank Fontaine,Catalina Denis,Robert Maillet,Annie Li Meng Tong,Carlo Rota,Mark Camacho,Mark Camacho,David McKeown,Danny Blanco Hall,Danny Blanco Hall,Andy Bradshaw,Ron Lea,Andreas Apergis,Richard Zeman,Bruce Ramsay
Genre: Action, Crime, Drama
External Links: IMDB
Director: Camille Delamarre
Producers: Luc Besson,Matt Alvarez,Romuald Drault,Ginette Guillard,Jonathan Vanger,Tucker Tooley,Ryan Kavanaugh,Henri Deneubourg,Jason Beckman,Jason Colodne,Claude Léger
Writers: Luc Besson,Bibi Naceri
Duration: 90
IMDB rating: 5.9/10
Summary: An undercover Detroit cop navigates a dangerous neighborhood that's surrounded by a containment wall with the help of an ex-con in order to bring down a crime lord and his plot to devastate the entire city.
Votes
Good: 0
Bad: 0
GoodBad
0
Seeders
1
Leechers

Added: 2014-06-23

Size: 1.41 GB

Health: 25%

Hash (Base16): 974357EFBB54ECAFC7F86A9A52ADE65946754F07

Hash (Base32): S5BVP353KTWK7R7YNKNFFLPGLFDHKTYH

DownloadBookmark
^
WARNING - THIS RELEASE IS OUT OF SYNC. REPORTED AND CHECKED IT MYSELF. GOES OUT OF SYNC AFTER HALF WAY THROUGH!

Screenshots:









                   A Fine Release Brought to you from - BL4CKP34RL                  
                                               

******************************************************************************************
                 Brick.Mansions.2014.WEBRip.Studio.Audio.XViD-BL4CKP34RL                  
******************************************************************************************

Ripper ...........: J4CKSP4RR0W          IMDB Rating.......: 6.0/10                            
Video Codec.......: XViD                 Release Date......: 22 June 2014
Audio Codec.......: AC3                  Theatre Date......: 25 April 2014  
Audio Bitrate.....: 224 kbps             Runtime...........: 1hr 21min 55sec
Subtitles.........: n/a                  Language..........: ENGLISH
Resolution........: 720x320              IMDb URL..........: http://www.imdb.com/title/tt1430612/


DETAILS:


Format                                   : AVI
Format/Info                              : Audio Video Interleave
File size                                : 1.38 GiB
Duration                                 : 1h 21mn
Overall bit rate                         : 2 417 Kbps

Video
ID                                       : 0
Format                                   : MPEG-4 Visual
Format profile                           : Advanced Simple@L5
Format settings, BVOP                    : 2
Format settings, QPel                    : No
Format settings, GMC                     : No warppoints
Format settings, Matrix                  : Default (H.263)
Codec ID                                 : XVID
Codec ID/Hint                            : XviD
Duration                                 : 1h 21mn
Bit rate                                 : 2 185 Kbps
Width                                    : 720 pixels
Height                                   : 320 pixels
Display aspect ratio                     : 2.25:1
Frame rate                               : 25.000 fps
Color space                              : YUV
Chroma subsampling                       : 4:2:0
Bit depth                                : 8 bits
Scan type                                : Progressive
Compression mode                         : Lossy
Bits/(Pixel*Frame)                       : 0.379
Stream size                              : 1.25 GiB (90%)
Writing library                          : XviD 1.2.1 (UTC 2008-12-04)

Audio
ID                                       : 1
Format                                   : AC-3
Format/Info                              : Audio Coding 3
Mode extension                           : CM (complete main)
Format settings, Endianness              : Big
Codec ID                                 : 2000
Duration                                 : 1h 21mn
Bit rate mode                            : Constant
Bit rate                                 : 224 Kbps
Channel(s)                               : 2 channels
Channel positions                        : Front: L R
Sampling rate                            : 48.0 KHz
Bit depth                                : 16 bits
Compression mode                         : Lossy
Stream size                              : 131 MiB (9%)
Alignment                                : Aligned on interleaves
Interleave, duration                     : 64 ms (1.60 video frames)
Interleave, preload duration             : 192 ms










SOURCES:



VIDEO: ............. 0sobn9k1.2014.D.WEBRip.1400MB ...thanks  
AUDIO: ............. Studio Audio a special friend  ...thanks

NOTES:


WE KNOW AND YOU KNOW YOU WANT THIS SO WE BROUGHT IT TO YA..


Took the nice RU WEBRip made a script to denoise jsut a lil bit and sharpen up then synced and
muxed the Studio Audio we got passed to the encode.. yes we said synced as vid is missing about
4 min total from the audio we had no including the credits with credits it was missing 8 min
total.. ENJOY AS THIS IS BEST YOU WILL GET TIL RETAIL..



SCREENS:










GREETS:


To those that deserve it.. You know who you are


Looking for not a damn thing




[mediainfo]
Video
ID                                       : 0
Format                                   : MPEG-4 Visual
Format profile                           : Advanced Simple@L5
Format settings, BVOP                    : 2
Format settings, QPel                    : No
Format settings, GMC                     : No warppoints
Format settings, Matrix                  : Default (H.263)
Codec ID                                 : XVID
Codec ID/Hint                            : XviD
Duration                                 : 1h 21mn
Bit rate                                 : 2 185 Kbps
Width                                    : 720 pixels
Height                                   : 320 pixels
Display aspect ratio                     : 2.25:1
Frame rate                               : 25.000 fps
Color space                              : YUV
Chroma subsampling                       : 4:2:0
Bit depth                                : 8 bits
Scan type                                : Progressive
Compression mode                         : Lossy
Bits/(Pixel*Frame)                       : 0.379
Stream size                              : 1.25 GiB (90%)
Writing library                          : XviD 1.2.1 (UTC 2008-12-04)

Audio
ID                                       : 1
Format                                   : AC-3
Format/Info                              : Audio Coding 3
Mode extension                           : CM (complete main)
Format settings, Endianness              : Big
Codec ID                                 : 2000
Duration                                 : 1h 21mn
Bit rate mode                            : Constant
Bit rate                                 : 224 Kbps
Channel(s)                               : 2 channels
Channel positions                        : Front: L R
Sampling rate                            : 48.0 KHz
Bit depth                                : 16 bits
Compression mode                         : Lossy
Stream size                              : 131 MiB (9%)
Alignment                                : Aligned on interleaves
Interleave, duration                     : 64 ms (1.60 video frames)
Interleave, preload duration             : 192 ms
Title                                    : synced


[/mediainfo]

TRACKERSEEDLEECHDOWNLOADED
udp://9.rarbg.me:2710/announce
udp://11.rarbg.me:80/announce
udp://10.rarbg.me:80/announce
udp://12.rarbg.me:80/announce
udp://9.rarbg.com:2710/announce
udp://open.demonii.com:1337/announce
udp://tracker.publicbt.com:80/announce
udp://tracker.istole.it:80/announce
udp://tracker.openbittorrent.com:80/announce
udp://tracker.istole.it:6969/announce
http://tracker.istole.it/announce
http://tracker.trackerfix.com/announce
udp://tracker.ccc.de:80/announce
http://tracker.thepiratebay.org/announce
udp://tracker-ccc.de:6969/announce
FILESIZE
Brick.Mansions.2014.WEBRip.Studio.Audio.XViD.AC3-BL4CKP34RL.avi1.38 GB
RARBG.com.txt31 B
bl4ckp34rl.nfo4.37 KB
sample.avi26 MB

Login

Account deleting

Are you sure you want to delete your account?

WARNING: This action cannot be undone!!!