Login / Register
HDRiP

Brick.Mansions.2014.WEBRip.CAM.AUDIO.XviD.MP3-RARBG

Category: Video
Type: Movies
Language: English
Movie Title: Brick Mansions
Detected quality: HDRiP
Release date: 2014-04-24
Cast: Paul Walker,David Belle,RZA,Frank Fontaine,Catalina Denis,Robert Maillet,Annie Li Meng Tong,Carlo Rota,Mark Camacho,Mark Camacho,David McKeown,Danny Blanco Hall,Danny Blanco Hall,Andy Bradshaw,Ron Lea,Andreas Apergis,Richard Zeman,Bruce Ramsay
Genre: Action, Crime, Drama
External Links: IMDB
Director: Camille Delamarre
Producers: Luc Besson,Matt Alvarez,Romuald Drault,Ginette Guillard,Jonathan Vanger,Tucker Tooley,Ryan Kavanaugh,Henri Deneubourg,Jason Beckman,Jason Colodne,Claude Léger
Writers: Luc Besson,Bibi Naceri
Duration: 90
IMDB rating: 5.7 (19,500 votes)
Summary: An undercover Detroit cop navigates a dangerous neighborhood that's surrounded by a containment wall with the help of an ex-con in order to bring down a crime lord and his plot to devastate the entire city.
Votes
Good: 0
Bad: 0
GoodBad
5
Seeders
0
Leechers

Added: 2014-06-22

Size: 1.56 GB

Health: 25%

Hash (Base16): 91437FBFC5B157B6EEB519E94D5AD73649F4796F

Hash (Base32): SFBX7P6FWFL3N3VVDHUU2WWXGZE7I6LP

DownloadBookmark
^

Brick.Mansion.2014.WEBRip.CAM.AUDIO.XviD.MP3-RARBG

Uploader notes: Work done. Doing this all day and finally done.
Audio it's very nice cam audio and everything was completely messed up with it. (waiting for line) Enjoy it! Greetz to everyone :)

Moderator translation. This means that the video is from a WebRip source that had a non-English sound-track. This has been stripped and replaced with a synchronised English soundtrack taken from a CAM source.

It is was it is and do not report it please.


image

Title: Brick Mansions (2014)
IMDB Rating: 6.1/10
Genres: Action , Crime , Drama
Actors: Paul Walker , David Belle , RZA , Gouchy Boy , Catalina Denis , Ayisha Issa , Carlo Rota , Andreas Apergis , Richard Zeman , Robert Maillet , Bruce Ramsay , Frank Fontaine , Chimwemwe Miller , Bradshaw Anderson , Ryan Trudeau
Runtime: 90
Year: 2014
Plot:
An undercover Detroit cop navigates a dangerous neighborhood that's surrounded by a containment wall with the help of an ex-con in order to bring down a crime lord
and his plot to devastate the entire city.

Brick.Mansion.2014.WEBRip.CAM.AUDIO.XviD.MP3-RARBG

http://imdb.com/title/tt1430612/

Screens:
image
image
image
image
image
image
image
image

Info:
Format : AVI
Format/Info : Audio Video Interleave
File size : 1.53 GiB
Duration : 1h 21mn
Overall bit rate : 2 674 Kbps
Movie name : RARBG.COM - Brick.Mansion.2014.WEBRip.CAM.AUDIO.XviD.MP3-RARBG
Writing library : VirtualDub build 35491/release
Comment : RARBG.COM - Brick.Mansion.2014.WEBRip.CAM.AUDIO.XviD.MP3-RARBG

Video
ID : 0
Format : MPEG-4 Visual
Format profile : Simple@L5
Format settings, BVOP : No
Format settings, QPel : No
Format settings, GMC : No warppoints
Format settings, Matrix : Default (H.263)
Codec ID : XVID
Codec ID/Hint : XviD
Duration : 1h 21mn
Bit rate : 2 406 Kbps
Width : 720 pixels
Height : 320 pixels
Display aspect ratio : 2.25:1
Frame rate : 25.000 fps
Color space : YUV
Chroma subsampling : 4:2:0
Bit depth : 8 bits
Scan type : Progressive
Compression mode : Lossy
Bits/(Pixel*Frame) : 0.418
Stream size : 1.38 GiB (90%)
Writing library : Lavc55.61.100

Audio
ID : 1
Format : MPEG Audio
Format version : Version 1
Format profile : Layer 3
Mode : Joint stereo
Codec ID : 55
Codec ID/Hint : MP3
Duration : 1h 21mn
Bit rate mode : Constant
Bit rate : 256 Kbps
Channel(s) : 2 channels
Sampling rate : 44.1 KHz
Compression mode : Lossy
Stream size : 150 MiB (10%)
Alignment : Aligned on interleaves
Interleave, duration : 26 ms (0.65 video frame)
Interleave, preload duration : 522 ms
Writing library : LAME3.99r
Encoding settings : -m j -V 4 -q 3 -lowpass 19.7



TRACKERSEEDLEECHDOWNLOADED
udp://tracker.coppersurfer.tk:6969/announce10315
http://mgtracker.org:2710/announce
udp://9.rarbg.me:2710/announce
udp://11.rarbg.me:80/announce
udp://10.rarbg.me:80/announce
udp://12.rarbg.me:80/announce
udp://9.rarbg.com:2710/announce
udp://open.demonii.com:1337/announce
udp://tracker.publicbt.com:80/announce
udp://tracker.istole.it:80/announce
udp://tracker.openbittorrent.com:80/announce
udp://tracker.istole.it:6969/announce
http://tracker.istole.it/announce
http://bt.careland.com.cn:6969/announce
http://bttracker.crunchbanglinux.org:6969/announce
http://tracker.trackerfix.com/announce
udp://tracker.ccc.de:80/announce
http://tracker.thepiratebay.org/announce
http://explodie.org:6969/announce
http://www.elitezones.ro/announce.php
http://elitezones.ro/announce.php
udp://tracker-ccc.de:6969/announce
FILESIZE
Brick.Mansion.2014.WEBRip.CAM.AUDIO.XviD.MP3-RARBG.avi1.53 GB
Sample/Sample.avi32.79 MB
RARBG.com.avi1.14 MB
Brick.Mansion.2014.WEBRip.CAM.AUDIO.XviD.MP3-RARBG.nfo3.33 KB
RARBG.com.txt31 B

Login

Account deleting

Are you sure you want to delete your account?

WARNING: This action cannot be undone!!!