Login / Register
Cam

Brick Mansions 2014 ENGLISH CAM XviD MP3-RARBG

Category: Video
Type: Movies
Language: English
Movie Title: Brick Mansions
Detected quality: Cam
Release date: 2014-04-24
Cast: Paul Walker,David Belle,RZA,Frank Fontaine,Catalina Denis,Robert Maillet,Annie Li Meng Tong,Carlo Rota,Mark Camacho,Mark Camacho,David McKeown,Danny Blanco Hall,Danny Blanco Hall,Andy Bradshaw,Ron Lea,Andreas Apergis,Richard Zeman,Bruce Ramsay
Genre: Action, Crime, Drama
External Links: IMDB
Director: Camille Delamarre
Producers: Luc Besson,Matt Alvarez,Romuald Drault,Ginette Guillard,Jonathan Vanger,Tucker Tooley,Ryan Kavanaugh,Henri Deneubourg,Jason Beckman,Jason Colodne,Claude Léger
Writers: Luc Besson,Bibi Naceri
Duration: 90
IMDB rating: 5.7 (19,500 votes)
Summary: An undercover Detroit cop navigates a dangerous neighborhood that's surrounded by a containment wall with the help of an ex-con in order to bring down a crime lord and his plot to devastate the entire city.
Votes
Good: 0
Bad: 0
GoodBad
5
Seeders
1
Leechers

Added: 2014-05-02

Size: 1.1 GB

Health: 100%

Hash (Base16): CA0B19C1EF72D0AE6036ED201B61C6E5BD883BF8

Hash (Base32): ZIFRTQPPOLIK4YBW5UQBWYOG4W6YQO7Y

DownloadBookmark
^

Brick Mansions 2014 ENGLISH CAM XviD MP3-RARBG

image

Title: Brick Mansions (2014)
IMDB Rating: 6.4/10
Genres: Action , Crime , Drama
Actors: Paul Walker , David Belle , RZA , Gouchy Boy , Catalina Denis , Ayisha Issa , Carlo Rota , Andreas Apergis , Richard Zeman , Robert Maillet , Bruce Ramsay , Frank Fontaine , Chimwemwe Miller , Bradshaw Anderson , Ryan Trudeau
Runtime: 90
Year: 2014
Plot:
An undercover Detroit cop navigates a dangerous neighborhood that's surrounded by a containment wall with the help of an ex-con in order to bring down a crime lord
and his plot to devastate the entire city.


Brick.Mansions.2014.ENGLISH.CAM.XviD.MP3-RARBG

http://imdb.com/title/tt1430612/

Screens:
image
image
image
image

Info:
Format : AVI
Format/Info : Audio Video Interleave
File size : 1.10 GiB
Duration : 1h 23mn
Overall bit rate : 1 868 Kbps
Movie name : RARBG.COM - Brick.Mansions.2014.ENGLISH.CAM.XviD.MP3-RARBG
Writing library : VirtualDub build 35491/release
Comment : RARBG.COM - Brick.Mansions.2014.ENGLISH.CAM.XviD.MP3-RARBG

Video
ID : 0
Format : MPEG-4 Visual
Format profile : Simple@L5
Format settings, BVOP : No
Format settings, QPel : No
Format settings, GMC : No warppoints
Format settings, Matrix : Default (H.263)
Codec ID : XVID
Codec ID/Hint : XviD
Duration : 1h 23mn
Bit rate : 1 598 Kbps
Width : 720 pixels
Height : 400 pixels
Display aspect ratio : 16:9
Frame rate : 29.970 fps
Color space : YUV
Chroma subsampling : 4:2:0
Bit depth : 8 bits
Scan type : Progressive
Compression mode : Lossy
Bits/(Pixel*Frame) : 0.185
Stream size : 959 MiB (86%)
Writing library : Lavc55.55.104

Audio
ID : 1
Format : MPEG Audio
Format version : Version 1
Format profile : Layer 3
Mode : Joint stereo
Mode extension : MS Stereo
Codec ID : 55
Codec ID/Hint : MP3
Duration : 1h 23mn
Bit rate mode : Constant
Bit rate : 256 Kbps
Channel(s) : 2 channels
Sampling rate : 48.0 KHz
Compression mode : Lossy
Stream size : 154 MiB (14%)
Alignment : Aligned on interleaves
Interleave, duration : 24 ms (0.72 video frame)
Interleave, preload duration : 504 ms




Notes:
Greetz to everyone :)

TRACKERSEEDLEECHDOWNLOADED
udp://9.rarbg.me:2710/announce
udp://11.rarbg.me:80/announce
udp://10.rarbg.me:80/announce
udp://12.rarbg.me:80/announce
udp://9.rarbg.com:2710/announce
udp://open.demonii.com:1337/announce
udp://tracker.publicbt.com:80/announce
udp://tracker.istole.it:80/announce
udp://tracker.openbittorrent.com:80/announce
udp://tracker.istole.it:6969/announce
http://tracker.trackerfix.com/announce
udp://tracker.ccc.de:80/announce
http://tracker.thepiratebay.org/announce
FILESIZE
Brick.Mansions.2014.ENGLISH.CAM.XviD.MP3-RARBG.avi1.1 GB
RARBG.com.avi1.14 MB
Brick.Mansions.2014.ENGLISH.CAM.XviD.MP3-RARBG.nfo3.09 KB
RARBG.com.txt31 B

Login

Account deleting

Are you sure you want to delete your account?

WARNING: This action cannot be undone!!!