Login / Register
DVDRip

Crook.2013.720p.UNRATED.WEBRip.x264.AAC-WTT

Category: Video
Type: Movies
Language: English
Movie Title: Crook
Detected quality: DVDRip
Cast: Charlie Ebbs,Adam Beach,Larry Day,Bill Lake,Leah Gibson,Andre Givogue,Jon McLaren,Douglas Kidd,Dennis Lafond,Sean Tucker,Krista Morin,Alexis Maitland,Cinthia Burke,Matthew Stefiuk,Daniel Simpson,Luigi Saracino,Donald M. Osborne,Guy Buller,Jennilee Murray
Genre: Thriller
External Links: IMDB
Director: Adrian Langley
Producers: Tom Berry,Curtis Crawford,Curtis Crawford,Pierre David,Adrian Langley,Robert Menzies,Donald M. Osborne,Donald M. Osborne,Robert Menzies,Tom Berry
Writer: Adrian Langley
Duration: 92
IMDB rating: 7.7 (7 votes)
Summary: In the course of one fateful day, the lives of a drug kingpin, an obsessed cop, a small time dealer and a cunning call girl converge with deadly consequences.
Votes
Good: 0
Bad: 0
GoodBad
1
Seeders
0
Leechers

Added: 2014-03-12

Size: 850.48 MB

Health: 25%

Hash (Base16): 25F4DE79C473877017CFBA14E28AFA658231E13D

Hash (Base32): EX2N46OEOODXAF6PXIKOFCX2MWBDDYJ5

DownloadBookmark
^
image


http://www.imdb.com/title/tt2747908/


In the course of one fateful day, the lives of a drug kingpin, an obsessed cop, a small time dealer and a cunning call girl converge with deadly consequences.

Director: Adrian Langley
Writer: Adrian Langley
Stars: Adam Beach, Guy Buller, Cinthia Burke
Genres: Thriller
Country: Canada
Language: English


General
Complete name: Crook 2013 720p UNRATED WEBRip x264 AAC-WTT.MP4
Format: MPEG-4
Format profile: Base Media / Version 2
Codec ID: mp42
File size: 850 MiB
Duration: 1h 32mn
Overall bit rate mode: Variable
Overall bit rate: 1 292 Kbps
Encoded date: UTC 2014-03-12 00:49:32
Tagged date: UTC 2014-03-12 01:07:22

Video
ID: 1
Format: AVC
Format/Info: Advanced Video Codec
Format profile: Main@L4.0
Format settings, CABAC: Yes
Format settings, ReFrames: 4 frames
Codec ID: avc1
Codec ID/Info: Advanced Video Coding
Duration: 1h 32mn
Bit rate: 1 127 Kbps
Width: 1 280 pixels
Height: 532 pixels
Display aspect ratio: 2.40:1
Frame rate mode: Variable
Frame rate: 23.976 fps
Minimum frame rate: 23.810 fps
Maximum frame rate: 24.390 fps
Color space: YUV
Chroma subsampling: 4:2:0
Bit depth: 8 bits
Scan type: Progressive
Bits/(Pixel*Frame): 0.069
Stream size: 742 MiB (87%)
Writing library: x264 core 130 r2273 b3065e6
Encoding settings: cabac=1 / ref=1 / deblock=1:0:0 / analyse=0x1:0x111 / me=hex / subme=2 / psy=1 / psy_rd=1.00:0.00 / mixed_ref=0 / me_range=16 / chroma_me=1 / trellis=0 / 8x8dct=0 / cqm=0 / deadzone=21,11 / fast_pskip=1 / chroma_qp_offset=0 / threads=12 / lookahead_threads=4 / sliced_threads=0 / nr=0 / decimate=1 / interlaced=0 / bluray_compat=0 / constrained_intra=0 / bframes=3 / b_pyramid=2 / b_adapt=1 / b_bias=0 / direct=1 / weightb=1 / open_gop=0 / weightp=1 / keyint=240 / keyint_min=24 / scenecut=40 / intra_refresh=0 / rc_lookahead=10 / rc=crf / mbtree=1 / crf=20.0 / qcomp=0.60 / qpmin=0 / qpmax=69 / qpstep=4 / vbv_maxrate=20000 / vbv_bufsize=25000 / crf_max=0.0 / nal_hrd=none / ip_ratio=1.40 / aq=1:1.00
Encoded date: UTC 2014-03-12 00:49:32
Tagged date: UTC 2014-03-12 01:07:22
Color primaries: BT.709
Transfer characteristics: BT.709
Matrix coefficients: BT.709

Audio
ID: 2
Format: AAC
Format/Info: Advanced Audio Codec
Format profile: LC
Codec ID: 40
Duration: 1h 32mn
Bit rate mode: Variable
Bit rate: 160 Kbps
Maximum bit rate: 385 Kbps
Channel(s): 2 channels
Channel positions: Front: L R
Sampling rate: 48.0 KHz
Compression mode: Lossy
Stream size: 105 MiB (12%)
Language: English
Encoded date: UTC 2014-03-12 00:49:32
Tagged date: UTC 2014-03-12 01:07:20



image
image
image

TRACKERSEEDLEECHDOWNLOADED
udp://tracker.coppersurfer.tk:6969/announce
http://mgtracker.org:2710/announce
udp://mgtracker.org:2710/announce
udp://9.rarbg.me:2710/announce
udp://11.rarbg.me:80/announce
udp://10.rarbg.me:80/announce
udp://12.rarbg.me:80/announce
udp://9.rarbg.com:2710/announce
udp://open.demonii.com:1337/announce
udp://tracker.publicbt.com:80/announce
udp://tracker.istole.it:80/announce
udp://tracker.openbittorrent.com:80/announce
udp://tracker.istole.it:6969/announce
http://tracker.istole.it/announce
http://tracker.trackerfix.com/announce
udp://exodus.desync.com:6969/announce
udp://tracker.publicbt.com/announce
udp://tracker.ccc.de:80/announce
udp://11.rarbg.com/announce
udp://10.rarbg.com/announce
udp://pow7.com:80/announce
http://tracker.ex.ua/announce
udp://tracker.1337x.org:80/announce
http://tracker.thepiratebay.org/announce
http://www.elitezones.ro/announce.php
http://elitezones.ro/announce.php
http://94.228.192.98/announce
udp://tracker.token.ro:80/announce
udp://tracker.prq.to/announce
http://tracker.ex.ua:80/announce
FILESIZE
Crook 2013 720p UNRATED WEBRip x264 AAC-WTT.MP4850.48 MB
Torrent Downloaded From ExtraTorrent.cc.txt338 B
nfo.nfo4.29 KB

Related results

Date Title Size Files Seeds Leechs Category Health
Video(Movies) 850.48 MB 2 2014-03-12 1 0 25%
Video(Movies) 850 MB 3 2014-03-12 0 1 25%
Video(Movies) 850.48 MB 2 2014-03-11 0 1 25%
Video(Movies) 850.48 MB 4 2014-03-11 0 1 25%

Login

Account deleting

Are you sure you want to delete your account?

WARNING: This action cannot be undone!!!