Login / Register

Daddy.Did.My.Girlfriend.XXX.DVDRip.x264-SWE6RUS

Category: XXX
Type: Other
Votes
Good: 0
Bad: 0
GoodBad
0
Seeders
1
Leechers

Added: 2014-07-15

Size: 2.02 GB

Health: 25%

Hash (Base16): E90F00840AA086ACCB043E0E3CC47AA453E5DF63

Hash (Base32): 5EHQBBAKUCDKZSYEHYHDZRD2URJ6LX3D

DownloadBookmark
^

Screenshots:


       .::                                                         ::.
                 SWE6RUS Finest X264           Crew presents

            .                                                   .
        :   :              Daddy Did My Girlfriend              :   :

    : :                                                               : :
   .:.:..:.            Company .........: Hustler                 .:..:.:.
  ... ::.              Street Date .....: 03/07/2014                .:: ...
      :                Source ..........: DVD                         :
                       Sound ...........: 171 kb/s tot , stereo (2/0)
      :                Bitrate .........: 1444 kb/s                   :
  ... ::.              Resolution ......: 720x400                   .:: ...
   .:.:..:.            Genre ...........: All Sex                 .:..:.:.
    : :  :             Runtime .........: 176 Min                  :  : :

                          .                        .
                        ..:                        :..
         :               .:.                      .:.              :
                          :    .; Movie Info ;.    :
                          :                        :

  : :                                                                   : :
 .::::.                                                               .::::.
 .::.                                                                   .::.
.:...:.                                                               .:...:.
   :                                                                     :
      Story : Horny for daddy's cock!

       Cast : Britney Young, Bill Bailey, Billy Glide, Will Powers, Ryan
              Driller, Tia Cyrus, Zoey Foxx, Emily Austin, Evi Fox, Monica
              Rise

   :                                                                     :
.:...:.                                                               .:...:.
 .::.                                                                   .::.
 .::::.                                                               .::::.
  : :   URL : http://www.cduniverse.com/productinfo.asp?pid=9276036     : :

                          .                        .
                        ..:                        :..
         :               .:.                      .:.              :
                          :    .; Respect to ;.    :
                          :                        :

    : :                                                               : :
   .:.:..:.                                                       .:..:.:.
  ... ::.                                                           .:: ...
      :                                                               :
           LiMiT FLiX Centropy iMMERSiON DMT DiAMOND Replica Chakra
           CUMSTAiNS RELOADED PROTOCOL CSiSO WDE PMS WAM TDA pHASE

           We also wanna thank for the competition to these groups:

             SMuT PORNOLATiON BLUEBALLS RVF Pr0nStarS xDMNx UGN
                             LDSXXX SPiCE DFA HiV

             Without YOU the XXX SCENE wouldnt be were it is NOW.

                              The gone Legends:

               ETERNAL ViNTAGE Playtime DVNVCD hYPNOTiC NovaVCD

      :                                                               :
  ... ::.                                                           .:: ...
   .:.:..:.                                                       .:..:.:.
    : :  :                                                         :  : :

                          .                        .
                        ..:                        :..
         :               .:.                      .:.              :
                          :       .; News ;.       :
                          :                        :

    : :                                                               : :
   .:.:..:.                                                       .:..:.:.
  ... ::.                                                           .:: ...
      :                                                               :

      :                                                               :
  ... ::.                                                           .:: ...
   .:.:..:.                                                       .:..:.:.
    : :  :                                                         :  : :
                                 .          .
                               .:: .:.  .:. ::.
                             .:.. cpN of cRo ..:.
                               :.. . 2oo5 . ..:

[mediainfo]
Video
ID                                       : 1
Format                                   : AVC
Format/Info                              : Advanced Video Codec
Format profile                           : High@L3.1
Format settings, CABAC                   : Yes
Format settings, ReFrames                : 5 frames
Codec ID                                 : avc1
Codec ID/Info                            : Advanced Video Coding
Duration                                 : 2h 56mn
Bit rate                                 : 1 440 Kbps
Width                                    : 720 pixels
Height                                   : 400 pixels
Display aspect ratio                     : 16:9
Frame rate mode                          : Constant
Frame rate                               : 29.970 fps
Color space                              : YUV
Chroma subsampling                       : 4:2:0
Bit depth                                : 8 bits
Scan type                                : Progressive
Bits/(Pixel*Frame)                       : 0.167
Stream size                              : 1.78 GiB (89%)
Writing library                          : x264 core 142 r2431 ac76440
Encoding settings                        : cabac=1 / ref=5 / deblock=1:0:0 / analyse=0x3:0x113 / me=umh / subme=8 / psy=1 / psy_rd=1.00:0.00 / mixed_ref=1 / me_range=16 / chroma_me=1 / trellis=1 / 8x8dct=1 / cqm=0 / deadzone=21,11 / fast_pskip=0 / chroma_qp_offset=-2 / threads=6 / lookahead_threads=1 / sliced_threads=0 / nr=0 / decimate=1 / interlaced=0 / bluray_compat=0 / constrained_intra=0 / bframes=3 / b_pyramid=2 / b_adapt=2 / b_bias=0 / direct=3 / weightb=1 / open_gop=0 / weightp=2 / keyint=300 / keyint_min=29 / scenecut=40 / intra_refresh=0 / rc_lookahead=50 / rc=crf / mbtree=1 / crf=19.0 / qcomp=0.60 / qpmin=0 / qpmax=69 / qpstep=4 / ip_ratio=1.40 / aq=1:1.00

Audio
ID                                       : 2
Format                                   : AAC
Format/Info                              : Advanced Audio Codec
Format profile                           : LC
Codec ID                                 : 40
Duration                                 : 2h 56mn
Bit rate mode                            : Constant
Bit rate                                 : 171 Kbps
Channel(s)                               : 2 channels
Channel positions                        : Front: L R
Sampling rate                            : 48.0 KHz
Compression mode                         : Lossy
Stream size                              : 217 MiB (11%)


[/mediainfo]

TRACKERSEEDLEECHDOWNLOADED
udp://9.rarbg.me:2710/announce
udp://11.rarbg.me:80/announce
udp://10.rarbg.me:80/announce
udp://12.rarbg.me:80/announce
udp://9.rarbg.com:2710/announce
udp://open.demonii.com:1337/announce
udp://tracker.publicbt.com:80/announce
udp://tracker.istole.it:80/announce
udp://tracker.openbittorrent.com:80/announce
udp://tracker.istole.it:6969/announce
http://tracker.trackerfix.com/announce
udp://tracker.ccc.de:80/announce
http://tracker.thepiratebay.org/announce
udp://tracker-ccc.de:6969/announce
FILESIZE
Covers/swe6-ddmgb.jpg242.08 KB
Covers/swe6-ddmgf.jpg178.35 KB
RARBG.com.txt31 B
Sample/swe6-ddmg-sample.mp417.14 MB
swe6-ddmg.mp42 GB
swe6-ddmg.nfo8.37 KB

Login

Account deleting

Are you sure you want to delete your account?

WARNING: This action cannot be undone!!!